Последнее путешествие «Деметра» / The Last Voyage of the Demeter (2023) WEB-DLRip [H.264] [MVO]

Ответить на тему
 
Автор Сообщение

admin ®

Пол: Не указан

Стаж: 5 месяца

Сообщений: 10110

Создавать темы 30-Янв-2024 17:39

[Цитировать]

Последнее путешествие «Деметра» / The Last Voyage of the Demeter (2023) WEB-DLRip - Производство: США, Великобритания, Мальта, Италия, Германия / Amblin Partners, Dreamworks Pictures, Firebrand Video
Жанр: ужасы
Режиссер: Андре Эвредал
Продюсер: Уинстон Аццопарди, Крис Бендер, Джеб Броди
Актеры: Кори Хокинс, Эшлинг Франчози, Лиам Каннингэм, Давид Дастмалчян, Крис Уолли, Джон Джон Брионес, Стефан Капичич, Мартин Фурулунд, Николай Николаефф, Вуди Норман
Описание:
6 июля 1897 года русский корабль «Деметр» с интернациональной командой отправляется из Варны в Лондон. В болгарском порту на борт были погружены несколько деревянных ящиков, которые за щедрое вознаграждение необходимо как можно скорее доставить в Англию. Вскоре после отплытия в одном из ящиков пробуждается Дракула, который начинает охотиться на моряков.
Рейтинг MPAA: R (лицам до 17 лет обязательно присутствие взрослого)
Релиз от: Rip by vitolinform
Продолжительность: 01:58:39
Качество видео: WEB-DLRip
Перевод: Многоголосый профессиональный (Jaskier, HDRezka Studio)
Язык озвучки: русский, английский
Субтитры: русские (forced, full), английские (full, SDH), испанские, французские
Видео: AVC/H.264, 1024x428, ~1459 Kbps
Аудио 1: AC3, 6 ch, 384 Кbps | Русский (MVO, Jaskier)
Аудио 2: AC3, 6 ch, 448 Кbps | Русский (MVO, HDRezka Studio)
Аудио 3: AC3, 6 ch, 448 Кbps | Английский

MediaInfo:

raw [info]: 1024x428p 1:1 @ 24000/1001 fps (cfr)
x264 [info]: using SAR=1/1
x264 [info]: using cpu capabilities: MMX2 SSE2Fast SSSE3 SSE4.2 AVX FMA3 BMI2 AVX2
x264 [info]: profile High, level 4.1, 4:2:0, 8-bit
x264 [info]: frame I:1303 Avg QP:12.35 size: 43690
x264 [info]: frame P:43353 Avg QP:14.26 size: 17255
x264 [info]: frame B:126048 Avg QP:17.22 size: 3913
x264 [info]: consecutive B-frames: 4.5% 2.7% 8.7% 38.2% 16.9% 20.2% 4.7% 2.6% 0.8% 0.4% 0.5%
x264 [info]: mb I I16..4: 7.8% 79.5% 12.7%
x264 [info]: mb P I16..4: 1.4% 13.1% 1.4% P16..4: 35.8% 24.9% 14.6% 0.0% 0.0% skip: 8.8%
x264 [info]: mb B I16..4: 0.1% 0.7% 0.1% B16..8: 38.6% 11.6% 2.2% direct: 3.4% skip:43.3% L0:42.6% L1:48.4% BI: 9.1%
x264 [info]: 8x8 transform intra:82.1% inter:52.6%
x264 [info]: coded y,uvDC,uvAC intra: 86.5% 72.2% 55.0% inter: 16.6% 12.4% 7.6%
x264 [info]: i16 v,h,dc,p: 30% 13% 11% 45%
x264 [info]: i8 v,h,dc,ddl,ddr,vr,hd,vl,hu: 13% 10% 12% 8% 10% 12% 10% 12% 13%
x264 [info]: i4 v,h,dc,ddl,ddr,vr,hd,vl,hu: 11% 7% 5% 10% 16% 15% 13% 11% 12%
x264 [info]: i8c dc,h,v,p: 48% 26% 16% 10%
x264 [info]: Weighted P-Frames: Y:9.1% UV:5.0%
x264 [info]: ref P L0: 50.7% 7.0% 15.5% 5.8% 4.5% 3.3% 3.2% 1.9% 1.7% 1.4% 1.2% 1.1% 0.8% 0.8% 0.7% 0.4%
x264 [info]: ref B L0: 74.7% 11.5% 4.9% 2.2% 1.5% 1.3% 1.0% 0.7% 0.5% 0.5% 0.3% 0.3% 0.3% 0.2% 0.1%
x264 [info]: ref B L1: 94.6% 5.4%
x264 [info]: kb/s:1458.68
x264 [total]: encoded 170704 frames, 10.30 fps, 1458.68 kb/s
=======================================================================
General
Unique ID : 21299813182407632542241174505471724710 (0x100631DE87A0FFD0C3648ECC7F3DCCA6)
Complete name : D:\Poslednee.puteshestvie.Demetra.2023.MA.WEB-DLRip.AVC.mkv
Format : Matroska
Format version : Version 4
File size : 2.27 GiB
Duration : 1 h 58 min
Overall bit rate : 2 742 kb/s
Frame rate : 23.976 FPS
Movie name : The Last Voyage of the Demeter (2023) WEB-DLRip AVC _ vitolinform
Encoded date : 2023-09-01 10:47:22 UTC
Writing application : mkvmerge v76.0 ('Celebration') 64-bit
Writing library : libebml v1.4.4 + libmatroska v1.7.1
Attachments : poster.jpg / log.log
Video
ID : 1
Format : AVC
Format/Info : Advanced Video Codec
Format profile : High@L4.1
Format settings : CABAC / 16 Ref Frames
Format settings, CABAC : Yes
Format settings, Reference frames : 16 frames
Codec ID : V_MPEG4/ISO/AVC
Duration : 1 h 58 min
Bit rate : 1 459 kb/s
Width : 1 024 pixels
Height : 428 pixels
Display aspect ratio : 2.40:1
Frame rate mode : Constant
Frame rate : 23.976 (24000/1001) FPS
Color space : YUV
Chroma subsampling : 4:2:0
Bit depth : 8 bits
Scan type : Progressive
Bits/(Pixel*Frame) : 0.139
Stream size : 1.21 GiB (53%)
Title : Последнее путешествие «Деметра» / The Last Voyage of the Demeter (2023)
Writing library : x264 core 164 r3107 a8b68eb
Encoding settings : cabac=1 / ref=16 / deblock=1:-3:-3 / analyse=0x3:0x113 / me=umh / subme=10 / psy=1 / psy_rd=1.00:0.05 / mixed_ref=1 / me_range=32 / chroma_me=1 / trellis=2 / 8x8dct=1 / cqm=0 / deadzone=21,11 / fast_pskip=0 / chroma_qp_offset=-3 / threads=12 / lookahead_threads=5 / sliced_threads=0 / nr=0 / decimate=0 / interlaced=0 / bluray_compat=0 / constrained_intra=0 / bframes=10 / b_pyramid=2 / b_adapt=2 / b_bias=0 / direct=1 / weightb=1 / open_gop=0 / weightp=2 / keyint=240 / keyint_min=24 / scenecut=40 / intra_refresh=0 / rc_lookahead=40 / rc=crf / mbtree=0 / crf=17.5 / qcomp=0.60 / qpmin=0 / qpmax=69 / qpstep=4 / vbv_maxrate=50000 / vbv_bufsize=62500 / crf_max=0.0 / nal_hrd=none / filler=0 / ip_ratio=1.40 / pb_ratio=1.40 / aq=1:1.00
Language : English
Default : Yes
Forced : No
Color range : Limited
Color primaries : BT.709
Transfer characteristics : BT.709
Matrix coefficients : BT.709
Audio #1
ID : 2
Format : AC-3
Format/Info : Audio Coding 3
Commercial name : Dolby Digital
Codec ID : A_AC3
Duration : 1 h 58 min
Bit rate mode : Constant
Bit rate : 384 kb/s
Channel(s) : 6 channels
Channel layout : L R C LFE Ls Rs
Sampling rate : 48.0 kHz
Frame rate : 31.250 FPS (1536 SPF)
Compression mode : Lossy
Stream size : 326 MiB (14%)
Title : MVO | Jaskier
Language : Russian
Service kind : Complete Main
Default : Yes
Forced : No
Audio #2
ID : 3
Format : AC-3
Format/Info : Audio Coding 3
Commercial name : Dolby Digital
Codec ID : A_AC3
Duration : 1 h 58 min
Bit rate mode : Constant
Bit rate : 448 kb/s
Channel(s) : 6 channels
Channel layout : L R C LFE Ls Rs
Sampling rate : 48.0 kHz
Frame rate : 31.250 FPS (1536 SPF)
Compression mode : Lossy
Stream size : 380 MiB (16%)
Title : MVO | HDRezka
Language : Russian
Service kind : Complete Main
Default : No
Forced : No
Audio #3
ID : 4
Format : AC-3
Format/Info : Audio Coding 3
Commercial name : Dolby Digital
Codec ID : A_AC3
Duration : 1 h 58 min
Bit rate mode : Constant
Bit rate : 448 kb/s
Channel(s) : 6 channels
Channel layout : L R C LFE Ls Rs
Sampling rate : 48.0 kHz
Frame rate : 31.250 FPS (1536 SPF)
Compression mode : Lossy
Delay relative to video : 1 s 0 ms
Stream size : 380 MiB (16%)
Title : English
Language : English
Service kind : Complete Main
Default : No
Forced : No
Text #1
ID : 5
Format : UTF-8
Codec ID : S_TEXT/UTF8
Codec ID/Info : UTF-8 Plain Text
Duration : 1 h 17 min
Bit rate : 2 b/s
Frame rate : 0.004 FPS
Count of elements : 19
Stream size : 1.20 KiB (0%)
Title : Forced
Language : Russian
Default : Yes
Forced : Yes
Text #2
ID : 6
Format : UTF-8
Codec ID : S_TEXT/UTF8
Codec ID/Info : UTF-8 Plain Text
Duration : 1 h 48 min
Bit rate : 64 b/s
Frame rate : 0.162 FPS
Count of elements : 1053
Stream size : 51.3 KiB (0%)
Title : Full | stirlooo
Language : Russian
Default : No
Forced : No
Text #3
ID : 7
Format : UTF-8
Codec ID : S_TEXT/UTF8
Codec ID/Info : UTF-8 Plain Text
Duration : 1 h 47 min
Bit rate : 42 b/s
Frame rate : 0.169 FPS
Count of elements : 1091
Stream size : 33.6 KiB (0%)
Title : Full
Language : English
Default : No
Forced : No
Text #4
ID : 8
Format : UTF-8
Codec ID : S_TEXT/UTF8
Codec ID/Info : UTF-8 Plain Text
Duration : 1 h 58 min
Bit rate : 47 b/s
Frame rate : 0.214 FPS
Count of elements : 1518
Stream size : 41.3 KiB (0%)
Title : SDH
Language : English
Default : No
Forced : No
Text #5
ID : 9
Format : UTF-8
Codec ID : S_TEXT/UTF8
Codec ID/Info : UTF-8 Plain Text
Duration : 1 h 56 min
Bit rate : 35 b/s
Frame rate : 0.156 FPS
Count of elements : 1096
Stream size : 30.6 KiB (0%)
Title : Full
Language : Spanish
Default : No
Forced : No
Text #6
ID : 10
Format : UTF-8
Codec ID : S_TEXT/UTF8
Codec ID/Info : UTF-8 Plain Text
Duration : 1 h 48 min
Bit rate : 37 b/s
Frame rate : 0.167 FPS
Count of elements : 1084
Stream size : 29.9 KiB (0%)
Title : Full
Language : French
Default : No
Forced : No
Menu
00:00:01.000 : en:Chapter 01
00:04:10.499 : en:Chapter 02
00:12:05.933 : en:Chapter 03
00:19:51.440 : en:Chapter 04
00:25:28.235 : en:Chapter 05
00:34:09.840 : en:Chapter 06
00:43:10.964 : en:Chapter 07
00:47:37.940 : en:Chapter 08
00:55:08.724 : en:Chapter 09
01:05:39.146 : en:Chapter 10
01:10:36.110 : en:Chapter 11
01:17:42.953 : en:Chapter 12
01:26:08.834 : en:Chapter 13
01:32:46.273 : en:Chapter 14
01:44:02.282 : en:Chapter 15
01:49:10.966 : en:Chapter 16
Скриншоты:
Все одноименные релизы в КлубеВремя раздачи: как минимум до появления первых 3-5 скачавших, 24/7 (мультитрекерная раздача)
[Профиль] [ЛС]
Показать сообщения:    
Ответить на тему

Текущее время: 28-Фев 21:54

Часовой пояс: UTC ± 0



Вы не можете начинать темы
Вы не можете отвечать на сообщения
Вы не можете редактировать свои сообщения
Вы не можете удалять свои сообщения
Вы не можете голосовать в опросах
Вы не можете прикреплять файлы к сообщениям
Вы не можете скачивать файлы

[  Время выполнения: 0,041 сек  |  MySQL: 0,003 сек (7%) · 3 запр.  |  GZIP выкл  |  Память: 422,29 KB / 1,76 MB / 1,38 MB  |  Лимит: 21 19 17  ]