Антиганг: Смена / Antigang: La Releve / The Squad: Home Run (2023) WEB-DLRip [H.264/1080p] [DVO] [AD]

Ответить на тему
 
Автор Сообщение

admin ®

Пол: Не указан

Стаж: 7 месяца 24 дня

Сообщений: 11520

Создавать темы 30-Янв-2024 17:39

[Цитировать]

Антиганг: Смена / Antigang: La Releve / The Squad: Home Run (2023) WEB-DLRip [H.264/1080p] - Производство: Франция / Empreinte Cinéma, Empreinte Digitale, SND Films
Жанр: боевик, триллер
Режиссер: Бенжамен Роше
Актеры: Альбан Ленуар, Кассиопея Маянс, София Эссаиди, Жан Рено, Стефи Сельма, Жан-Туссен Бернард, Barbara Elisabeth Bühl, Себастьян Лаланн, Умар Диау, Адриен Меньель и др.
Описание:
«АнтиГанг: Преемственность»
Пытаясь совместить семейные каникулы с небольшим расследованием, парижский полицейский Нильс Картье оказывается вдовцом с маленькой дочкой на руках. Спустя восемь лет, бывший крутой легавый и нынешний скромный инструктор в автошколе, Нильс начинает подозревать, что банда, погубившая его жену, снова готовит какое-то дерзкое ограбление. Но вот беда, бойцы полицейского отряда «Антиганг» не хотят всерьёз воспринимать предупреждения своего экс-коллеги, и тому приходится пускаться по следам грабителей в одиночку.
Продолжение крутого французского боевика восьмилетней давности содержит не меньше драк, погонь и перестрелок, чем оригинал. Драйвом и эффектностью экшн-сцен второй «Антиганг» может сравниться со многими голливудскими блокбастерами.
Релиз от: ViruseProject
Продолжительность: 01:34:47
Качество видео: WEB-DLRip 1080p
Перевод: Профессиональный двухголосый (ViruseProject)
Язык озвучки: Русский, английский
Субтитры: Русские
Реклама: Присутствуют видео вставки рекламы
Видео: AVC/H.264, 1920x1080 (16:9), ~4359 Kbps
Аудио 1: AC3, 2 ch, 224 Kbps - русский
Аудио 2: AC3, 2 ch, 224 Kbps - английский

MediaInfo:

General
Unique ID : 196258349954781553010057896782162187980 (0x93A5FBB9A3E2AD21A74E28DD7CF256CC)
Complete name : Antigang.La.Releve.2023.1080p.WEB-DLRip.ViruseProject.mkv
Format : Matroska
Format version : Version 4
File size : 3.18 GiB
Duration : 1 h 34 min
Overall bit rate : 4 810 kb/s
Encoded date : UTC 2023-09-01 04:54:09
Writing application : mkvmerge v8.3.0 ('Over the Horizon') 64bit
Writing library : libebml v1.3.1 + libmatroska v1.4.2
Video
ID : 1
Format : AVC
Format/Info : Advanced Video Codec
Format profile : High@L4
Format settings : CABAC / 4 Ref Frames
Format settings, CABAC : Yes
Format settings, Reference frames : 4 frames
Codec ID : V_MPEG4/ISO/AVC
Duration : 1 h 34 min
Bit rate : 4 359 kb/s
Width : 1 920 pixels
Height : 1 080 pixels
Display aspect ratio : 16:9
Frame rate mode : Constant
Frame rate : 25.000 FPS
Color space : YUV
Chroma subsampling : 4:2:0
Bit depth : 8 bits
Scan type : Progressive
Bits/(Pixel*Frame) : 0.084
Stream size : 2.89 GiB (91%)
Language : English
Default : Yes
Forced : No
Color range : Limited
Color primaries : BT.709
Transfer characteristics : BT.709
Matrix coefficients : BT.709
Audio #1
ID : 2
Format : AC-3
Format/Info : Audio Coding 3
Commercial name : Dolby Digital
Codec ID : A_AC3
Duration : 1 h 34 min
Bit rate mode : Constant
Bit rate : 224 kb/s
Channel(s) : 2 channels
Channel layout : L R
Sampling rate : 48.0 kHz
Frame rate : 31.250 FPS (1536 SPF)
Compression mode : Lossy
Stream size : 152 MiB (5%)
Title : ViruseProject
Language : Russian
Service kind : Complete Main
Default : No
Forced : No
Audio #2
ID : 3
Format : AC-3
Format/Info : Audio Coding 3
Commercial name : Dolby Digital
Codec ID : A_AC3
Duration : 1 h 34 min
Bit rate mode : Constant
Bit rate : 224 kb/s
Channel(s) : 2 channels
Channel layout : L R
Sampling rate : 48.0 kHz
Frame rate : 31.250 FPS (1536 SPF)
Compression mode : Lossy
Stream size : 152 MiB (5%)
Language : English
Service kind : Complete Main
Default : No
Forced : No
Text
ID : 4
Format : UTF-8
Codec ID : S_TEXT/UTF8
Codec ID/Info : UTF-8 Plain Text
Duration : 1 h 30 min
Bit rate : 83 b/s
Count of elements : 1159
Stream size : 55.4 KiB (0%)
Title : ViruseProject
Language : Russian
Default : No
Forced : No
Скриншоты:
Все одноименные релизы в КлубеВремя раздачи: мультитрекерная раздача
[Профиль] [ЛС]
Показать сообщения:    
Ответить на тему

Текущее время: 23-Май 05:18

Часовой пояс: UTC ± 0



Вы не можете начинать темы
Вы не можете отвечать на сообщения
Вы не можете редактировать свои сообщения
Вы не можете удалять свои сообщения
Вы не можете голосовать в опросах
Вы не можете прикреплять файлы к сообщениям
Вы не можете скачивать файлы

[  Время выполнения: 0,041 сек  |  MySQL: 0,003 сек (8%) · 3 запр.  |  GZIP выкл  |  Память: 422,29 KB / 1,74 MB / 1,36 MB  |  Лимит: 16 17 18  ]