Мег 2: Бездна / Meg 2: The Trench (2023) WEB-DLRip [AV1/1080p-LQ] [10-bit]

Ответить на тему
 
Автор Сообщение

admin ®

Пол: Не указан

Стаж: 5 месяца

Сообщений: 10110

Создавать темы 30-Янв-2024 17:39

[Цитировать]

Мег 2: Бездна / Meg 2: The Trench (2023) WEB-DLRip [AV1/1080p-LQ]- Производство: США, Китай / Apelles Entertainment, China Media Capital, Flagship Entertainment Group
Жанр: ужасы, фантастика, боевик
Режиссер: Бен Уитли
Актеры: Джейсон Стэйтем, Джеки У, Клифф Кёртис, Шуя Софиа Цай, Пейдж Кеннеди, Серхио Перис-Менчета, Скайлер Сэмюэлс, Мелиссанти Махут, Вупи Ван Раам, Киран Соня Савар
Описание:
Исследовательская группа погружается в самые глубокие впадины океана с целью выявления залежей полезных ископаемых. Их путешествие превращается в хаос, когда они сталкиваются с целой группой колоссальных мегаладонов. И теперь, чтобы выжить, им придётся во всём превзойти этих безжалостных хищников.
Рейтинг MPAA: PG-13 (детям до 13 лет просмотр нежелателен)
Релиз от: LORDKILL
Продолжительность: 01:55:38
Качество видео: WEB-DLRip 1080p
Перевод: Дублированный (SC Produb)
Язык озвучки: Русский, английский
Субтитры: Русские (forced, full), английские (forced, full, SDH)
Видео: AV1, 1920x804, ~2190 Kbps
Аудио: AC3, 6 ch, 384 kbps - Русский
Аудио: OPUS, 6 ch, 159 kbps - Английский

MediaInfo:

General
Unique ID : 16467672530710516698647382806324779858 (0xC638EF0F38BCAEAF7C9C43173D71B52)
Complete name : E:\КИНО\ДЛЯ РАЗДАЧ\Мег 2. Бездна (2023) WEB-DLRip-AV1 1080p.mkv
Format : Matroska
Format version : Version 4
File size : 2.21 GiB
Duration : 1 h 55 min
Overall bit rate : 2 737 kb/s
Frame rate : 23.976 FPS
Movie name : Мег 2: Бездна / Meg 2: The Trench (2023)
Encoded date : 2023-09-01 15:07:09 UTC
Writing application : mkvmerge v32.0.0 ('Astral Progressions') 64-bit
Writing library : libebml v1.3.7 + libmatroska v1.5.0
Cover : Yes
Attachments : cover.jpg
Video
ID : 1
Format : AV1
Format/Info : AOMedia Video 1
Format profile : Main@L4.0
Codec ID : V_AV1
Duration : 1 h 55 min
Bit rate : 2 190 kb/s
Width : 1 920 pixels
Height : 804 pixels
Display aspect ratio : 2.40:1
Frame rate mode : Constant
Frame rate : 23.976 (24000/1001) FPS
Color space : YUV
Chroma subsampling : 4:2:0
Bit depth : 10 bits
Bits/(Pixel*Frame) : 0.059
Stream size : 1.77 GiB (80%)
Title : Meg 2 The Trench (2023)
Default : Yes
Forced : No
Color range : Limited
Audio #1
ID : 2
Format : AC-3
Format/Info : Audio Coding 3
Commercial name : Dolby Digital
Codec ID : A_AC3
Duration : 1 h 55 min
Bit rate mode : Constant
Bit rate : 384 kb/s
Channel(s) : 6 channels
Channel layout : L R C LFE Ls Rs
Sampling rate : 48.0 kHz
Frame rate : 31.250 FPS (1536 SPF)
Compression mode : Lossy
Stream size : 318 MiB (14%)
Title : Дубляж (SC Produb)
Language : Russian
Service kind : Complete Main
Default : No
Forced : Yes
Audio #2
ID : 3
Format : Opus
Codec ID : A_OPUS
Duration : 1 h 55 min
Bit rate : 159 kb/s
Channel(s) : 6 channels
Channel layout : L R C Lb Rb LFE
Sampling rate : 48.0 kHz
Frame rate : 50.000 FPS (960 SPF)
Compression mode : Lossy
Stream size : 131 MiB (6%)
Title : English - Opus (5.1)
Default : Yes
Forced : No
Text #1
ID : 4
Format : UTF-8
Codec ID : S_TEXT/UTF8
Codec ID/Info : UTF-8 Plain Text
Duration : 1 h 43 min
Bit rate : 6 b/s
Frame rate : 0.019 FPS
Count of elements : 115
Stream size : 4.73 KiB (0%)
Title : Forced
Language : Russian
Default : Yes
Forced : Yes
Text #2
ID : 5
Format : UTF-8
Codec ID : S_TEXT/UTF8
Codec ID/Info : UTF-8 Plain Text
Duration : 1 h 54 min
Bit rate : 69 b/s
Frame rate : 0.216 FPS
Count of elements : 1486
Stream size : 58.3 KiB (0%)
Title : Full v.1
Language : Russian
Default : No
Forced : No
Text #3
ID : 6
Format : UTF-8
Codec ID : S_TEXT/UTF8
Codec ID/Info : UTF-8 Plain Text
Duration : 1 h 45 min
Bit rate : 90 b/s
Frame rate : 0.235 FPS
Count of elements : 1482
Stream size : 69.8 KiB (0%)
Title : Full v.2
Language : Russian
Default : No
Forced : No
Text #4
ID : 7
Format : UTF-8
Codec ID : S_TEXT/UTF8
Codec ID/Info : UTF-8 Plain Text
Duration : 1 h 35 min
Bit rate : 3 b/s
Frame rate : 0.016 FPS
Count of elements : 90
Stream size : 2.71 KiB (0%)
Title : Forced
Language : English
Default : No
Forced : No
Text #5
ID : 8
Format : UTF-8
Codec ID : S_TEXT/UTF8
Codec ID/Info : UTF-8 Plain Text
Duration : 1 h 48 min
Bit rate : 52 b/s
Frame rate : 0.252 FPS
Count of elements : 1639
Stream size : 41.8 KiB (0%)
Title : Full
Language : English
Default : No
Forced : No
Text #6
ID : 9
Format : UTF-8
Codec ID : S_TEXT/UTF8
Codec ID/Info : UTF-8 Plain Text
Duration : 1 h 50 min
Bit rate : 67 b/s
Frame rate : 0.310 FPS
Count of elements : 2057
Stream size : 54.9 KiB (0%)
Title : SDH
Language : English
Default : No
Forced : No
Menu
00:00:00.000 : en:Chapter 01
00:08:43.690 : en:Chapter 02
00:18:01.498 : en:Chapter 03
00:27:15.427 : en:Chapter 04
00:36:33.151 : en:Chapter 05
00:44:02.517 : en:Chapter 06
00:51:22.457 : en:Chapter 07
00:58:47.402 : en:Chapter 08
01:08:29.275 : en:Chapter 09
01:17:18.722 : en:Chapter 10
01:26:18.595 : en:Chapter 11
01:33:36.366 : en:Chapter 12
01:39:35.308 : en:Chapter 13
01:46:06.783 : en:Chapter 14
Скриншоты:
Все одноименные релизы в КлубеВремя раздачи: 24/7 (минимум до появления первых 10 скачавших)
[Профиль] [ЛС]
Показать сообщения:    
Ответить на тему

Текущее время: 28-Фев 22:55

Часовой пояс: UTC ± 0



Вы не можете начинать темы
Вы не можете отвечать на сообщения
Вы не можете редактировать свои сообщения
Вы не можете удалять свои сообщения
Вы не можете голосовать в опросах
Вы не можете прикреплять файлы к сообщениям
Вы не можете скачивать файлы

[  Время выполнения: 0,040 сек  |  MySQL: 0,004 сек (10%) · 5 запр.  |  GZIP выкл  |  Память: 422,29 KB / 1,74 MB / 1,36 MB  |  Лимит: 9 9 10  ]