Последнее путешествие «Деметра» / The Last Voyage of the Demeter (2023) WEB-DLRip [MVO]

Ответить на тему
 
Автор Сообщение

admin ®

Пол: Не указан

Стаж: 6 месяца 22 дня

Сообщений: 11520

Создавать темы 30-Янв-2024 17:39

[Цитировать]

Последнее путешествие «Деметра» / The Last Voyage of the Demeter (2023) WEB-DLRip- Производство: США, Великобритания, Мальта, Италия, Германия, Amblin Partners, Dreamworks Pictures, Firebrand Video
Жанр: ужасы
Режиссер: Андре Эвредал
Актеры: Кори Хокинс, Эшлинг Франчози, Лиам Каннингэм, Давид Дастмалчян, Крис Уолли, Джон Джон Брионес, Стефан Капичич, Мартин Фурулунд, Николай Николаефф, Вуди Норман
Описание:
6 июля 1897 года русский корабль «Деметр» с интернациональной командой отправляется из Варны в Лондон. В болгарском порту на борт были погружены несколько деревянных ящиков, которые за щедрое вознаграждение необходимо как можно скорее доставить в Англию. Вскоре после отплытия в одном из ящиков пробуждается Дракула, который начинает охотиться на моряков.
Рейтинг MPAA: R (лицам до 17 лет обязательно присутствие взрослого)
Релиз от: MegaPeer
Продолжительность: 01:58:39
Качество видео: WEB-DLRip
Перевод: Многоголосый профессиональный (HDRezka Studio)
Язык озвучки: русский
Субтитры: Русские (Forced, Full)
Видео: XviD, 720x304, ~1310 Kbps
Аудио: AC3, 6 ch, 448 Kbps

MediaInfo:

Общее
Полное имя : \The.Last.Voyage.of.the.Demeter.1.46GB.HDR.MegaPeer.avi
Формат : AVI
Формат/Информация : Audio Video Interleave
Настройки формата : WaveFormatEx
Размер файла : 1,46 Гбайт
Продолжительность : 1 ч. 58 м.
Общий поток : 1 766 Кбит/сек
Частота кадров : 23,976 кадра/сек
Видео
Идентификатор : 0
Формат : MPEG-4 Visual
Профиль формата : Advanced Simple@L5
Настройки формата : BVOP1 / Custom Matrix
Параметр BVOP формата : 1
Параметр QPel формата : Нет
Параметр GMC формата : Без точки перехода
Параметр матрицы формата : Выборочная
Идентификатор кодека : XVID
Идентификатор кодека/Подсказка : XviD
Продолжительность : 1 ч. 58 м.
Битрейт : 1 310 Кбит/сек
Ширина : 720 пикселей
Высота : 304 пикселя
Соотношение сторон : 2,35:1
Частота кадров : 23,976 (24000/1001) кадра/сек
Цветовое пространство : YUV
Субдискретизация насыщенности : 4:2:0
Битовая глубина : 8 бит
Тип развёртки : Прогрессивная
Метод сжатия : С потерями
Бит/(Пиксели*Кадры) : 0.250
Размер потока : 1,09 Гбайт (74%)
Библиотека кодирования : XviD 73
Аудио
Идентификатор : 1
Формат : AC-3
Формат/Информация : Audio Coding 3
Коммерческое название : Dolby Digital
Идентификатор кодека : 2000
Продолжительность : 1 ч. 58 м.
Вид битрейта : Постоянный
Битрейт : 448 Кбит/сек
Каналы : 6 каналов
Channel layout : L R C LFE Ls Rs
Частота : 48,0 КГц
Частота кадров : 31,250 кадров/сек (1536 SPF)
Метод сжатия : С потерями
Размер потока : 380 Мбайт (25%)
Выравнивание : Соединение по промежуткам
Продолжительность промежутка : 64 мс. (1,53 видеокадра)
Время предзагрузки промежутка : 192 мс.
Service kind : Complete Main
Текст #1
Идентификатор : 2
Формат : SubRip
Продолжительность : 1 ч. 17 м.
Время начала : 1 м. 19 с.
Время окончания : 1 ч. 18 м.
Битрейт : 3 бит/сек
Метод сжатия : Без потерь
Размер потока : 1,95 Кбайт (0%)
Заголовок : forced
Count of events : 19
Minimum duration per event : 1 с. 110 мс.
Count of lines : 25
Maximum count of lines per event : 2
Текст #2
Идентификатор : 3
Формат : SubRip
Продолжительность : 1 ч. 48 м.
Время начала : 1 м. 19 с.
Время окончания : 1 ч. 49 м.
Битрейт : 117 бит/сек
Метод сжатия : Без потерь
Размер потока : 92,4 Кбайт (0%)
Заголовок : full
Count of events : 1053
Minimum duration per event : 867 мс.
Count of lines : 1307
Maximum count of lines per event : 3
Скриншоты:
Все одноименные релизы в КлубеВремя раздачи: 24/7 (мультитрекер)
[Профиль] [ЛС]
Показать сообщения:    
Ответить на тему

Текущее время: 20-Апр 19:58

Часовой пояс: UTC ± 0



Вы не можете начинать темы
Вы не можете отвечать на сообщения
Вы не можете редактировать свои сообщения
Вы не можете удалять свои сообщения
Вы не можете голосовать в опросах
Вы не можете прикреплять файлы к сообщениям
Вы не можете скачивать файлы

[  Время выполнения: 0,037 сек  |  MySQL: 0,003 сек (9%) · 3 запр.  |  GZIP выкл  |  Память: 422,29 KB / 1,74 MB / 1,36 MB  |  Лимит: 7 5 5  ]