Антиганг: Смена / Antigang: La Releve (2023) WEB-DL [H.264/1080p] [DVO]

Ответить на тему
 
Автор Сообщение

admin ®

Пол: Не указан

Стаж: 4 месяца 23 дня

Сообщений: 10110

Создавать темы 30-Янв-2024 17:38

[Цитировать]

Антиганг: Смена / Antigang: La Releve (2023) WEB-DL [H.264/1080p]- Производство: Франция / Capture The Flag Films
Жанр: боевик, триллер
Режиссер: Бенжамен Роше
Актеры: Жан Рено, Альбан Ленуар, Катерина Мурино, Умар Диау, Стефи Сельма, Себастьен ЛаЛэйнн, Тьерри Нёвик, Жан-Туссен Бернард, Якоб Седергрен, Эстер Козёль
Описание:
Легенда по борьбе с преступностью Нильс Картье ушел из полиции после неудачного ограбления, которое привело к смерти его жены. Когда восемь лет спустя банда грабителей, виновных в ее смерти, снова появляется, Нильс готов на все, чтобы отомстить. Даже если ему придется составить взрывной дуэт со своей 14-летней темпераментной дочерью.
Продолжительность: 01:33:08
Качество видео: WEB-DL (1080p)
Перевод: Профессиональный двухголосый (ViruseProject)
Язык озвучки: Русский, французский
Субтитры: Русские, английские, французские
Видео: AVC/H.264, 1920x1080, ~5962 Kbps
Аудио #1: AC3, 2 ch, 192 Kbps - Русский
Аудио #2: E-AC3, 6 ch, 768 Kbps - Французский

MediaInfo:

Общее
Уникальный идентификатор : 307790356811552676025800750886524205063 (0xE78E4437E1EF18BAD10738DEA81EB807)
Полное имя : D:\NNM\Антиганг\Antigang.La.Releve.2023.DSNP.WEB-DL.1080p.ExKinoRay.mkv
Формат : Matroska
Версия формата : Version 4
Размер файла : 4,51 Гбайт
Продолжительность : 1 ч. 33 м.
Режим общего битрейта : Переменный
Общий поток : 6 925 Кбит/сек
Название фильма : Antigang: La Relève (2023)
Дата кодирования : UTC 2023-09-01 18:28:20
Программа кодирования : mkvmerge v74.0.0 ('You Oughta Know') 64-bit
Библиотека кодирования : libebml v1.4.4 + libmatroska v1.7.1
Видео
Идентификатор : 1
Формат : AVC
Формат/Информация : Advanced Video Codec
Профиль формата : High@L4
Настройки формата : CABAC / 4 Ref Frames
Параметр CABAC формата : Да
Параметр RefFrames формата : 4 кадра
Идентификатор кодека : V_MPEG4/ISO/AVC
Продолжительность : 1 ч. 33 м.
Вид битрейта : Переменный
Битрейт : 5 962 Кбит/сек
Максимальный битрейт : 12,7 Мбит/сек
Ширина : 1 920 пикселей
Высота : 1 080 пикселей
Соотношение сторон : 16:9
Режим частоты кадров : Постоянный
Частота кадров : 25,000 кадров/сек
Цветовое пространство : YUV
Субдискретизация насыщенности : 4:2:0
Битовая глубина : 8 бит
Тип развёртки : Прогрессивная
Бит/(Пиксели*Кадры) : 0.115
Размер потока : 3,88 Гбайт (86%)
Язык : French
Default : Да
Forced : Нет
Цветовой диапазон : Limited
Основные цвета : BT.709
Характеристики трансфера : BT.709
Коэффициенты матрицы : BT.709
Аудио #1
Идентификатор : 2
Формат : AC-3
Формат/Информация : Audio Coding 3
Коммерческое название : Dolby Digital
Идентификатор кодека : A_AC3
Продолжительность : 1 ч. 33 м.
Вид битрейта : Постоянный
Битрейт : 192 Кбит/сек
Каналы : 2 канала
Channel layout : L R
Частота : 48,0 КГц
Частота кадров : 31,250 кадров/сек (1536 SPF)
Метод сжатия : С потерями
Размер потока : 128 Мбайт (3%)
Заголовок : ViruseProject
Язык : Russian
Service kind : Complete Main
Default : Да
Forced : Нет
Аудио #2
Идентификатор : 3
Формат : E-AC-3 JOC
Формат/Информация : Enhanced AC-3 with Joint Object Coding
Коммерческое название : Dolby Digital Plus with Dolby Atmos
Идентификатор кодека : A_EAC3
Продолжительность : 1 ч. 33 м.
Вид битрейта : Постоянный
Битрейт : 768 Кбит/сек
Каналы : 6 каналов
Channel layout : L R C LFE Ls Rs
Частота : 48,0 КГц
Частота кадров : 31,250 кадров/сек (1536 SPF)
Метод сжатия : С потерями
Размер потока : 512 Мбайт (11%)
Заголовок : Original
Язык : French
Service kind : Complete Main
Default : Нет
Forced : Нет
Complexity index : 16
Number of dynamic objects : 15
Bed channel count : 1 канал
Bed channel configuration : LFE
Текст #1
Идентификатор : 4
Формат : UTF-8
Идентификатор кодека : S_TEXT/UTF8
Идентификатор кодека/Информация : UTF-8 Plain Text
Продолжительность : 1 ч. 29 м.
Битрейт : 84 бит/сек
Count of elements : 1160
Размер потока : 55,4 Кбайт (0%)
Заголовок : Full
Язык : Russian
Default : Нет
Forced : Нет
Текст #2
Идентификатор : 5
Формат : UTF-8
Идентификатор кодека : S_TEXT/UTF8
Идентификатор кодека/Информация : UTF-8 Plain Text
Продолжительность : 45 м. 29 с.
Битрейт : 3 бит/сек
Count of elements : 42
Размер потока : 1,05 Кбайт (0%)
Заголовок : Forced
Язык : French
Default : Нет
Forced : Нет
Текст #3
Идентификатор : 6
Формат : UTF-8
Идентификатор кодека : S_TEXT/UTF8
Идентификатор кодека/Информация : UTF-8 Plain Text
Продолжительность : 1 ч. 30 м.
Битрейт : 55 бит/сек
Count of elements : 1016
Размер потока : 37,0 Кбайт (0%)
Заголовок : Full
Язык : French
Default : Нет
Forced : Нет
Текст #4
Идентификатор : 7
Формат : UTF-8
Идентификатор кодека : S_TEXT/UTF8
Идентификатор кодека/Информация : UTF-8 Plain Text
Продолжительность : 1 ч. 30 м.
Битрейт : 62 бит/сек
Count of elements : 1194
Размер потока : 41,4 Кбайт (0%)
Заголовок : SDH
Язык : French
Default : Нет
Forced : Нет
Текст #5
Идентификатор : 8
Формат : UTF-8
Идентификатор кодека : S_TEXT/UTF8
Идентификатор кодека/Информация : UTF-8 Plain Text
Продолжительность : 1 ч. 30 м.
Битрейт : 46 бит/сек
Count of elements : 973
Размер потока : 30,6 Кбайт (0%)
Заголовок : Full
Язык : English
Default : Нет
Forced : Нет
Текст #6
Идентификатор : 9
Формат : UTF-8
Идентификатор кодека : S_TEXT/UTF8
Идентификатор кодека/Информация : UTF-8 Plain Text
Продолжительность : 1 ч. 31 м.
Битрейт : 48 бит/сек
Count of elements : 1080
Размер потока : 33,0 Кбайт (0%)
Заголовок : SDH
Язык : English
Default : Нет
Forced : Нет
Скриншоты: Все одноименные релизы в КлубеВремя раздачи: 24/7 (до 10-ти скачавших)
[Профиль] [ЛС]
Показать сообщения:    
Ответить на тему

Текущее время: 22-Фев 01:46

Часовой пояс: UTC ± 0



Вы не можете начинать темы
Вы не можете отвечать на сообщения
Вы не можете редактировать свои сообщения
Вы не можете удалять свои сообщения
Вы не можете голосовать в опросах
Вы не можете прикреплять файлы к сообщениям
Вы не можете скачивать файлы

[  Время выполнения: 0,039 сек  |  MySQL: 0,003 сек (7%) · 3 запр.  |  GZIP выкл  |  Память: 421,85 KB / 1,75 MB / 1,37 MB  |  Лимит: 10 11 15  ]