Космос. Смерть. Роботы / Cosmic Chaos (2023) WEB-DL [H.264/1080p] [Локализованный видеоряд]

Ответить на тему
 
Автор Сообщение

admin ®

Пол: Не указан

Стаж: 6 месяца 19 дня

Сообщений: 11520

Создавать темы 30-Янв-2024 17:38

[Цитировать]

Космос. Смерть. Роботы / Cosmic Chaos (2023) WEB-DL [H.264/1080p] - Производство: Канада, США, Великобритания / Hewes Pictures
Жанр: фантастика, триллер
Режиссер: Иван Степанов, Нгуйен-Ан Нгуйен, Блэйк Саймон
Актеры: Кен Годмир, Даррен Хопвуд, Джинэнн Гуссен, Питер Синкода, Кэролайн Деверне, Кертис Берчхольт, Криста Чендли, Дэниэл Ван Томас, Пол Статман, Гленн Багвелл
Описание:
Фантастический триллер от шести режиссеров из разных стран расскажет истории о боях в виртуальной реальности, о выживании в постапокалиптической пустоши и о советском космическом корабле, подающем сигнал бедствия.
Возраст: 18+ (зрителям, достигшим 18 лет. запрещено для детей)
Релиз от: селезень
Продолжительность: 01:27:06
Качество видео: WEB-DL
Перевод: Дублированный (Leff Sound)
Язык озвучки: русский, английский
Субтитры: отсутствуют
Видео: AVC/H.264, 1920x1080, ~5110 Кbps
Аудио 1: AC3, 6 ch, 384 Кbps - русский
Аудио 2: AC3, 2 ch, 384 Кbps - английский

MediaInfo:

General
Unique ID : 146209611215192396343761339729739872914 (0x6DFEF264156ADF16A9E3B0FD4F057A92)
Complete name : G:VideoGCosmic.Chaos.2023.WEB-DL.1080p.seleZen.mkv
Format : Matroska
Format version : Version 4
File size : 3.58 GiB
Duration : 1 h 27 min
Overall bit rate : 5 881 kb/s
Frame rate : 24.000 FPS
Movie name : Cosmic Chaos 2023 from seleZen
Encoded date : 2023-08-30 21:33:48 UTC
Writing application : mkvmerge v63.0.0 ('Everything') 64-bit
Writing library : libebml v1.4.2 + libmatroska v1.6.4
Video
ID : 1
Format : AVC
Format/Info : Advanced Video Codec
Format profile : High@L4
Format settings : CABAC / 4 Ref Frames
Format settings, CABAC : Yes
Format settings, Reference : 4 frames
Codec ID : V_MPEG4/ISO/AVC
Duration : 1 h 27 min
Bit rate : 5 111 kb/s
Width : 1 920 pixels
Height : 1 080 pixels
Display aspect ratio : 16:9
Frame rate mode : Constant
Frame rate : 24.000 FPS
Color space : YUV
Chroma subsampling : 4:2:0
Bit depth : 8 bits
Scan type : Progressive
Bits/(Pixel*Frame) : 0.103
Stream size : 3.11 GiB (87%)
Default : Yes
Forced : No
Audio #1
ID : 2
Format : AC-3
Format/Info : Audio Coding 3
Commercial name : Dolby Digital
Codec ID : A_AC3
Duration : 1 h 27 min
Bit rate mode : Constant
Bit rate : 384 kb/s
Channel(s) : 6 channels
Channel layout : L R C LFE Ls Rs
Sampling rate : 48.0 kHz
Frame rate : 31.250 FPS (1536 SPF)
Compression mode : Lossy
Stream size : 239 MiB (7%)
Title : Dub
Language : Russian
Service kind : Complete Main
Default : Yes
Forced : Yes
Audio #2
ID : 3
Format : AC-3
Format/Info : Audio Coding 3
Commercial name : Dolby Digital
Codec ID : A_AC3
Duration : 1 h 27 min
Bit rate mode : Constant
Bit rate : 384 kb/s
Channel(s) : 2 channels
Channel layout : L R
Sampling rate : 48.0 kHz
Frame rate : 31.250 FPS (1536 SPF)
Compression mode : Lossy
Stream size : 239 MiB (7%)
Title : Original
Language : English
Service kind : Complete Main
Default : No
Forced : No
Скриншоты:
Все одноименные релизы в КлубеВремя раздачи: 24/7 (мультитрекерная раздача)
[Профиль] [ЛС]
Показать сообщения:    
Ответить на тему

Текущее время: 17-Апр 14:49

Часовой пояс: UTC ± 0



Вы не можете начинать темы
Вы не можете отвечать на сообщения
Вы не можете редактировать свои сообщения
Вы не можете удалять свои сообщения
Вы не можете голосовать в опросах
Вы не можете прикреплять файлы к сообщениям
Вы не можете скачивать файлы

[  Время выполнения: 0,034 сек  |  MySQL: 0,003 сек (8%) · 3 запр.  |  GZIP выкл  |  Память: 422,29 KB / 1,73 MB / 1,33 MB  |  Лимит: 8 8 8  ]