Мгла / La tour (2022) BDRip [H.264/1080p-LQ] [10-bit]

Ответить на тему
 
Автор Сообщение

admin ®

Пол: Не указан

Стаж: 5 месяца 1 день

Сообщений: 10110

Создавать темы 30-Янв-2024 17:37

[Цитировать]

Мгла / La tour (2022) BDRip [H.264/1080p-LQ] - Производство: Франция, Unité, Centre national du cinéma et de l'image animée (CNC)
Жанр: ужасы, фэнтези, драма
Режиссер: Гийом Никлу
Актеры: Анжель Мак, Атик, Ахмед Абдель Лауи, Килиан Лармони, Мервей Нсомби, Николя Пиньон, Игорь Ковальский, Мари Ремон, Жюдит Виллике, Модест Нзапассара
Описание:
Проснувшись однажды утром, обитатели дома-башни обнаруживают, что все вокруг них окутано густым туманом. Странная темная материя обступает все двери и окна и уничтожает любого, кто попытается пройти сквозь нее. Стремясь выжить во мгле, люди все чаще проявляют свои самые худшие качества, и тьма поглощает их.
Возраст: 18+ (зрителям, достигшим 18 лет. запрещено для детей)
Релиз от: LORDKILL
Продолжительность: 01:29:49
Качество видео: BDRip 1080p
Перевод: Дублированный (CPI Films)
Язык озвучки: Русский
Субтитры: Русские (Forced)
Видео: AVC/H.264, 1920х804, ~4526 Kbps
Аудио:: AC3, 6 ch, 384 kbps - Русский

MediaInfo:

General
Unique ID : 159219416479763160402498152833156292263 (0x77C88B5035321ECDBFB5507FBA2A9EA7)
Complete name : D:\РЕМУКС\Мгла (2022).mkv
Format : Matroska
Format version : Version 4
File size : 3.08 GiB
Duration : 1 h 29 min
Overall bit rate : 4 911 kb/s
Frame rate : 24.000 FPS
Movie name : Мгла / La tour (2022) - #LORDKILL#
Encoded date : 2023-08-31 03:33:53 UTC
Writing application : mkvmerge v32.0.0 ('Astral Progressions') 64-bit
Writing library : libebml v1.3.7 + libmatroska v1.5.0
Video
ID : 1
Format : AVC
Format/Info : Advanced Video Codec
Format profile : High 10@L4.1
Format settings : CABAC / 5 Ref Frames
Format settings, CABAC : Yes
Format settings, Reference : 5 frames
Codec ID : V_MPEG4/ISO/AVC
Duration : 1 h 29 min
Bit rate : 4 526 kb/s
Width : 1 920 pixels
Height : 804 pixels
Display aspect ratio : 2.40:1
Frame rate mode : Constant
Frame rate : 24.000 FPS
Color space : YUV
Chroma subsampling : 4:2:0
Bit depth : 10 bits
Scan type : Progressive
Bits/(Pixel*Frame) : 0.122
Stream size : 2.84 GiB (92%)
Writing library : x264 core 164 r3095 baee400
Encoding settings : cabac=1 / ref=5 / deblock=1:-3:-3 / analyse=0x3:0x113 / me=umh / subme=10 / psy=1 / psy_rd=1.00:0.15 / mixed_ref=1 / me_range=32 / chroma_me=1 / trellis=2 / 8x8dct=1 / cqm=0 / deadzone=6,6 / fast_pskip=0 / chroma_qp_offset=-3 / threads=17 / lookahead_threads=4 / sliced_threads=0 / nr=0 / decimate=1 / interlaced=0 / bluray_compat=0 / constrained_intra=0 / bframes=10 / b_pyramid=2 / b_adapt=2 / b_bias=0 / direct=3 / weightb=1 / open_gop=0 / weightp=2 / keyint=240 / keyint_min=24 / scenecut=40 / intra_refresh=0 / rc=crf / mbtree=0 / crf=22.5 / qcomp=0.60 / qpmin=0 / qpmax=69 / qpstep=4 / ip_ratio=1.10 / pb_ratio=1.10 / aq=3:0.70
Language : English
Default : Yes
Forced : No
Color range : Limited
Color primaries : BT.709
Transfer characteristics : BT.709
Matrix coefficients : BT.709
Audio
ID : 2
Format : AC-3
Format/Info : Audio Coding 3
Commercial name : Dolby Digital
Codec ID : A_AC3
Duration : 1 h 29 min
Bit rate mode : Constant
Bit rate : 384 kb/s
Channel(s) : 6 channels
Channel layout : L R C LFE Ls Rs
Sampling rate : 48.0 kHz
Frame rate : 31.250 FPS (1536 SPF)
Compression mode : Lossy
Stream size : 247 MiB (8%)
Title : Дубляж
Language : Russian
Service kind : Complete Main
Default : Yes
Forced : No
Text
ID : 3
Format : UTF-8
Codec ID : S_TEXT/UTF8
Codec ID/Info : UTF-8 Plain Text
Duration : 47 s 166 ms
Bit rate : 46 b/s
Frame rate : 0.148 FPS
Count of elements : 7
Stream size : 276 Bytes (0%)
Title : Forced
Language : Russian
Default : Yes
Forced : Yes
Menu
00:00:00.000 : Глава 01
00:02:51.125 : Глава 02
00:08:48.332 : Глава 03
00:21:03.667 : Глава 04
00:32:03.750 : Глава 05
00:41:48.292 : Глава 06
00:50:29.333 : Глава 07
00:58:40.375 : Глава 08
01:05:38.583 : Глава 09
01:13:20.167 : Глава 10
01:17:39.292 : Глава 11
01:25:42.208 : Глава 12
Скриншоты:
Все одноименные релизы в КлубеВремя раздачи: 24/7 (круглосуточно) (минимум до появления первых 10 скачавших)
[Профиль] [ЛС]
Показать сообщения:    
Ответить на тему

Текущее время: 29-Фев 12:23

Часовой пояс: UTC ± 0



Вы не можете начинать темы
Вы не можете отвечать на сообщения
Вы не можете редактировать свои сообщения
Вы не можете удалять свои сообщения
Вы не можете голосовать в опросах
Вы не можете прикреплять файлы к сообщениям
Вы не можете скачивать файлы

[  Время выполнения: 0,035 сек  |  MySQL: 0,003 сек (10%) · 3 запр.  |  GZIP выкл  |  Память: 422,29 KB / 1,74 MB / 1,34 MB  |  Лимит: 18 17 14  ]