Криминальный город: Разборки в Пусане / Beomjoe dosi 3 / The Roundup: No Way Out (2023) WEB-DL [H.264/1080p] [MVO]

Ответить на тему
 
Автор Сообщение

admin ®

Пол: Не указан

Стаж: 4 месяца 27 дня

Сообщений: 10110

Создавать темы 30-Янв-2024 17:37

[Цитировать]

Криминальный город: Разборки в Пусане / Beomjoe dosi 3 / The Roundup: No Way Out (2023) WEB-DL [H.264/1080p]- Производство: Южная Корея / ABO Entertainment, B.A. Entertainment, Big Punch Pictures
Жанр: криминал, боевик, триллер, детектив
Режиссер: Ли Сан-ён
Актеры: Ма Дон-сок, Ли Джун-хёк, Мунэтака Аоки, Ким Мин-джэ, Ли Джи-хун, Ко Гю-пхиль, Ан Сэ-хо, Чон Сок-хо, Ли Бом-су, Дзюн Кунимура
Описание:
2015 год. Дeтектив Ма Сок-то перевёлся в инчхонский следственный отдел, работает с новой командой, и покой ему только снится. Втайне от главы клана ушлые якудза поставляют в город новый синтетический наркотик, который становится дико популярным в увеселительных заведениях. Используя собственное неотразимое обаяние, а также сокрушительные удары правой и левой, через цепочку информаторов детектив Ма выясняет — с японцами сотрудничает кто-то из местных.
Возраст: 18+ (зрителям, достигшим 18 лет. запрещено для детей)
Продолжительность: 01:45:25
Качество видео: WEB-DL (1080p)
Перевод: Многоголосый профессиональный (TVShows)
Язык озвучки: Русский
Субтитры: Английские
Видео: AVC/H.264, 1920x872, ~6640 Kbps
Аудио: AC3, 6 ch, 384 Kbps

MediaInfo:

Общее
Уникальный идентификатор : 233802593200943098584050118716410069614 (0xAFE4BDD50C5A74ACBC9E83B5A498826E)
Полное имя : D:\NNM\Криминальный город\Beomjoe dosi 3.2023.WEB-DL.1080p.mkv
Формат : Matroska
Версия формата : Version 4
Размер файла : 5,28 Гбайт
Продолжительность : 1 ч. 45 м.
Общий поток : 7 166 Кбит/сек
Дата кодирования : UTC 2023-08-31 18:31:43
Программа кодирования : mkvmerge v6.9.1 ('Blue Panther') 32bit built on Apr 18 2014 18:15:44
Библиотека кодирования : libebml v1.3.0 + libmatroska v1.4.1
Видео
Идентификатор : 1
Формат : AVC
Формат/Информация : Advanced Video Codec
Профиль формата : High@L4
Настройки формата : CABAC / 4 Ref Frames
Параметр CABAC формата : Да
Параметр RefFrames формата : 4 кадра
Идентификатор кодека : V_MPEG4/ISO/AVC
Продолжительность : 1 ч. 45 м.
Вид битрейта : Постоянный
Битрейт : 6 640 Кбит/сек
Номинальный битрейт : 10 000 Кбит/сек
Ширина : 1 920 пикселей
Высота : 872 пикселя
Соотношение сторон : 2,2:1
Соотношение сторон в оригинале : 2,2:1
Режим частоты кадров : Постоянный
Частота кадров : 24,000 кадра/сек
Цветовое пространство : YUV
Субдискретизация насыщенности : 4:2:0
Битовая глубина : 8 бит
Тип развёртки : Прогрессивная
Бит/(Пиксели*Кадры) : 0.165
Размер потока : 4,89 Гбайт (93%)
Язык : Korean
Default : Да
Forced : Нет
Цветовой диапазон : Limited
Основные цвета : BT.709
Характеристики трансфера : BT.709
Коэффициенты матрицы : BT.709
Аудио
Идентификатор : 2
Формат : AC-3
Формат/Информация : Audio Coding 3
Коммерческое название : Dolby Digital
Идентификатор кодека : A_AC3
Продолжительность : 1 ч. 45 м.
Вид битрейта : Постоянный
Битрейт : 384 Кбит/сек
Каналы : 6 каналов
Channel layout : L R C LFE Ls Rs
Частота : 48,0 КГц
Частота кадров : 31,250 кадров/сек (1536 SPF)
Метод сжатия : С потерями
Размер потока : 290 Мбайт (5%)
Заголовок : MVO TVShows
Язык : Russian
Service kind : Complete Main
Default : Да
Forced : Нет
Текст
Идентификатор : 3
Формат : UTF-8
Идентификатор кодека : S_TEXT/UTF8
Идентификатор кодека/Информация : UTF-8 Plain Text
Язык : English
Default : Нет
Forced : Нет
Скриншоты: Все одноименные релизы в КлубеВремя раздачи: 24/7 (до 10-ти скачавших)
[Профиль] [ЛС]
Показать сообщения:    
Ответить на тему

Текущее время: 25-Фев 19:22

Часовой пояс: UTC ± 0



Вы не можете начинать темы
Вы не можете отвечать на сообщения
Вы не можете редактировать свои сообщения
Вы не можете удалять свои сообщения
Вы не можете голосовать в опросах
Вы не можете прикреплять файлы к сообщениям
Вы не можете скачивать файлы

[  Время выполнения: 0,033 сек  |  MySQL: 0,003 сек (9%) · 3 запр.  |  GZIP выкл  |  Память: 422,29 KB / 1,72 MB / 1,32 MB  |  Лимит: 9 12 15  ]