Вызов (2023) WEBRip [H.264/1080p]

Ответить на тему
 
Автор Сообщение

admin ®

Пол: Не указан

Стаж: 6 месяца 22 дня

Сообщений: 11520

Создавать темы 30-Янв-2024 17:36

[Цитировать]

Вызов (2023) WEBRip [H.264/1080p]- Производство: Россия, Госкорпорация «Роскосмос», Первый канал, START, Yellow, Black & White
Жанр: драма
Режиссер: Клим Шипенко
Продюсер: Константин Эрнст, Дмитрий Рогозин, Сергей Титинков
Актеры: Юлия Пересильд, Милош Бикович, Владимир Машков, Олег Новицкий, Антон Шкаплеров, Пётр Дубров, Елена Валюшкина, Варвара Володина, Андрей Щепочкин, Александр Балуев
Описание:
Торакальный хирург Женя за месяц должна подготовиться к космическому полету, чтобы отправиться на МКС и спасти заболевшего космонавта. Ей придётся преодолеть неуверенность и страхи, а также провести сложнейшую операцию в условиях невесомости, от которой зависят шансы космонавта вернуться на Землю живым.
Возраст: 12+ (зрителям, достигшим 12 лет)
Релиз от: Soft-Torrent - торрент игры программы фильмы книги скачать
Продолжительность: 02:43:25
Качество видео: WEBRip
Перевод: Не требуется (Русский)
Субтитры: отсутствуют
Видео: AVC/H.264, 1920x1080, 5000 kbps
Аудио: AC3, 2 ch, 48 kHz, 256 Kbps | Русский

MediaInfo:

Общее
Уникальный идентификатор : 245841032351827495975925274222156534574 (0xB8F342B524FD5CA8B5C6F66FE3B3532E)
Полное имя : D:\Вызов.2023.WEBRip.[1080p].Soft-Torrent - торрент игры программы фильмы книги скачать.mkv
Формат : Matroska
Версия формата : Version 4
Размер файла : 5,99 Гбайт
Продолжительность : 2 ч. 43 м.
Общий поток : 5250 Кбит/сек
Название фильма : Вызов.2023.WEBRip.[1080p].Soft-Torrent - торрент игры программы фильмы книги скачать
Дата кодирования : UTC 2023-08-31 20:38:27
Программа кодирования : mkvmerge v8.3.0 ('Over the Horizon') 64bit
Библиотека кодирования : libebml v1.3.1 + libmatroska v1.4.2
Видео
Идентификатор : 1
Формат : AVC
Формат/Информация : Advanced Video Codec
Профиль формата : High@L4
Настройки формата : CABAC / 4 Ref Frames
Параметр CABAC формата : Да
Параметр RefFrames формата : 4 кадра
Идентификатор кодека : V_MPEG4/ISO/AVC
Продолжительность : 2 ч. 43 м.
Битрейт : 5000 Кбит/сек
Ширина : 1920 пикселей
Высота : 1080 пикселей
Соотношение сторон : 16:9
Режим частоты кадров : Постоянный
Частота кадров : 24,000 кадра/сек
Цветовое пространство : YUV
Субдискретизация насыщенности : 4:2:0
Битовая глубина : 8 бит
Тип развёртки : Прогрессивная
Бит/(Пиксели*Кадры) : 0.100
Размер потока : 5,70 Гбайт (95%)
Библиотека кодирования : x264 core 161
Настройки программы : cabac=1 / ref=2 / deblock=1:0:0 / analyse=0x3:0x113 / me=hex / subme=6 / psy=1 / psy_rd=1.00:0.00 / mixed_ref=1 / me_range=16 / chroma_me=1 / trellis=1 / 8x8dct=1 / cqm=0 / deadzone=21,11 / fast_pskip=1 / chroma_qp_offset=-2 / threads=12 / lookahead_threads=2 / sliced_threads=0 / nr=0 / decimate=1 / interlaced=0 / bluray_compat=0 / constrained_intra=0 / bframes=3 / b_pyramid=2 / b_adapt=1 / b_bias=0 / direct=1 / weightb=1 / open_gop=0 / weightp=1 / keyint=250 / keyint_min=24 / scenecut=40 / intra_refresh=0 / rc_lookahead=30 / rc=abr / mbtree=1 / bitrate=5000 / ratetol=1.0 / qcomp=0.60 / qpmin=0 / qpmax=69 / qpstep=4 / vbv_maxrate=6000 / vbv_bufsize=12000 / nal_hrd=none / filler=0 / ip_ratio=1.40 / aq=1:1.00
Язык : Russian
Default : Да
Forced : Нет
Цветовой диапазон : Limited
Основные цвета : BT.709
Характеристики трансфера : BT.709
Коэффициенты матрицы : BT.709
Аудио
Идентификатор : 2
Формат : AC-3
Формат/Информация : Audio Coding 3
Коммерческое название : Dolby Digital
Идентификатор кодека : A_AC3
Продолжительность : 2 ч. 43 м.
Вид битрейта : Постоянный
Битрейт : 256 Кбит/сек
Каналы : 2 канала
ChannelLayout : L R
Частота : 48,0 КГц
Частота кадров : 31,250 кадров/сек (1536 SPF)
Битовая глубина : 16 бит
Метод сжатия : С потерями
Задержка видео : -83 мс.
Размер потока : 299 Мбайт (5%)
Язык : Russian
ServiceKind/String : Complete Main
Default : Да
Forced : Нет
Скриншоты:
Все одноименные релизы в КлубеВремя раздачи: 24/7 (минимум до появления первых 3-5 скачавших)
[Профиль] [ЛС]
Показать сообщения:    
Ответить на тему

Текущее время: 20-Апр 19:26

Часовой пояс: UTC ± 0



Вы не можете начинать темы
Вы не можете отвечать на сообщения
Вы не можете редактировать свои сообщения
Вы не можете удалять свои сообщения
Вы не можете голосовать в опросах
Вы не можете прикреплять файлы к сообщениям
Вы не можете скачивать файлы

[  Время выполнения: 0,039 сек  |  MySQL: 0,004 сек (10%) · 3 запр.  |  GZIP выкл  |  Память: 422,29 KB / 1,74 MB / 1,34 MB  |  Лимит: 3 5 9  ]