Земля мафии / Mob Land (2023) WEB-DLRip [H.264/1080p] [DVO]

Ответить на тему
 
Автор Сообщение

admin ®

Пол: Не указан

Стаж: 4 месяца 27 дня

Сообщений: 10110

Создавать темы 30-Янв-2024 17:36

[Цитировать]

Земля мафии / Mob Land (2023) WEB-DLRip [H.264/1080p] - Производство: Канада, 308 Ent, BondIt, Buffalo 8 Productions, Three Point Capital
Жанр: боевик, триллер, криминал
Режиссер: Николас Маджио
Актеры: Шайло Фернандес, Кевин Диллон, Джон Траволта, Стивен Дорфф, Дональд Оум, Эшли Бенсон, Тимоти В. Мерфи, Роберт Миано, Эмили Треймейн, Томми Дж. Кендрик
Описание:
Провинциальный американский городок. Простые работяги Шелби и Трей решают устроить дерзкое ограбление, чтобы достать деньги для своей семьи. Их преступление идет не по плану, из-за чего они ввязываются в перестрелку, убивают двух человек и едва скрываются с места. Вскоре на их след нападает опытный шериф Боди Дэвис, который хочет во что бы то ни стало покончить с наркобизнесом, медленно пожирающим его родной город. Однако служитель закона оказывается вовсе не самым опасным противником Шелби и Трея. Грабители даже не подозревают, что украденные ими деньги принадлежат могущественному мафиозному боссу, который жаждет отомстить людям, сорвавшим его планы.
Рейтинг MPAA: R (лицам до 17 лет обязательно присутствие взрослого)
Релиз от: Atla22®
Продолжительность: 01:50:57
Качество видео: WEB-DLRip
Перевод: Двуголосый профессиональный (ViruseProject)
Язык озвучки: русский, английский
Субтитры: русские, английские (SDH)
Видео: AVC/H.264, 1920х800, ~8520 Kbps
Аудио 1: AC3, 2 ch, 256 kbps, русский (DVO ViruseProject)
Аудио 2: AC3, 6 ch, 640 kbps, английский

MediaInfo:

Общее
Уникальный идентификатор : 209382219829590637216128104926214665804 (0x9D858C778D217B2F824C78F5B380B64C)
Полное имя : Земля мафии. 2023 (WEB-DLRip 1080p).mkv
Формат : Matroska
Версия формата : Version 2
Размер файла : 7,45 Гбайт
Продолжительность : 1 ч. 50 м.
Общий поток : 9 607 Кбит/сек
Частота кадров : 23,976 кадра/сек
Название фильма : Mob.Land.2023.WEB-DLRip 1080p.Atla22
Дата кодирования : 2023-08-31 20:15:38 UTC
Программа кодирования : mkvmerge v7.8.0 ('River Man') 32bit built on Apr 3 2015 12:11:22
Библиотека кодирования : libebml v1.3.1 + libmatroska v1.4.2
Обложка : Yes
Attachments : Cover_Mob.Land.jpg
Видео
Идентификатор : 1
Формат : AVC
Формат/Информация : Advanced Video Codec
Профиль формата : High@L4
Настройки формата : CABAC / 4 Ref Frames
Параметр CABAC формата : Да
Параметр RefFrames формата : 4 кадра
Идентификатор кодека : V_MPEG4/ISO/AVC
Продолжительность : 1 ч. 50 м.
Вид битрейта : Постоянный
Битрейт : 8 520 Кбит/сек
Номинальный битрейт : 10 000 Кбит/сек
Ширина : 1 920 пикселей
Высота : 800 пикселей
Соотношение сторон : 2,40:1
Режим частоты кадров : Постоянный
Частота кадров : 23,976 (24000/1001) кадра/сек
Цветовое пространство : YUV
Субдискретизация насыщенности : 4:2:0
Битовая глубина : 8 бит
Тип развёртки : Прогрессивная
Бит/(Пиксели*Кадры) : 0.231
Размер потока : 6,60 Гбайт (89%)
Язык : English
Default : Да
Forced : Нет
Цветовой диапазон : Limited
Основные цвета : BT.709
Характеристики трансфера : BT.709
Коэффициенты матрицы : BT.709
Аудио #1
Идентификатор : 2
Формат : AC-3
Формат/Информация : Audio Coding 3
Коммерческое название : Dolby Digital
Идентификатор кодека : A_AC3
Продолжительность : 1 ч. 50 м.
Вид битрейта : Постоянный
Битрейт : 256 Кбит/сек
Каналы : 2 канала
Channel layout : L R
Частота : 48,0 КГц
Частота кадров : 31,250 кадров/сек (1536 SPF)
Метод сжатия : С потерями
Размер потока : 203 Мбайт (3%)
Заголовок : ViruseProject
Язык : Russian
Service kind : Complete Main
Default : Да
Forced : Нет
Аудио #2
Идентификатор : 3
Формат : AC-3
Формат/Информация : Audio Coding 3
Коммерческое название : Dolby Digital
Идентификатор кодека : A_AC3
Продолжительность : 1 ч. 50 м.
Вид битрейта : Постоянный
Битрейт : 640 Кбит/сек
Каналы : 6 каналов
Channel layout : L R C LFE Ls Rs
Частота : 48,0 КГц
Частота кадров : 31,250 кадров/сек (1536 SPF)
Метод сжатия : С потерями
Размер потока : 508 Мбайт (7%)
Язык : English
Service kind : Complete Main
Default : Нет
Forced : Нет
Текст #1
Идентификатор : 4
Формат : UTF-8
Идентификатор кодека : S_TEXT/UTF8
Идентификатор кодека/Информация : UTF-8 Plain Text
Язык : Russian
Default : Нет
Forced : Нет
Текст #2
Идентификатор : 5
Формат : UTF-8
Идентификатор кодека : S_TEXT/UTF8
Идентификатор кодека/Информация : UTF-8 Plain Text
Заголовок : SDH
Язык : English
Default : Нет
Forced : Нет
Скриншоты:
Все одноименные релизы в КлубеВремя раздачи: 24/7 (круглосуточно) (минимум до появления первых 3-5 скачавших)
[Профиль] [ЛС]
Показать сообщения:    
Ответить на тему

Текущее время: 25-Фев 18:40

Часовой пояс: UTC ± 0



Вы не можете начинать темы
Вы не можете отвечать на сообщения
Вы не можете редактировать свои сообщения
Вы не можете удалять свои сообщения
Вы не можете голосовать в опросах
Вы не можете прикреплять файлы к сообщениям
Вы не можете скачивать файлы

[  Время выполнения: 0,063 сек  |  MySQL: 0,011 сек (17%) · 3 запр.  |  GZIP выкл  |  Память: 422,29 KB / 1,75 MB / 1,37 MB  |  Лимит: 18 17 16  ]