Деус / Deus (2022) BDRemux [H.264/1080p] [MVO]

Ответить на тему
 
Автор Сообщение

admin ®

Пол: Не указан

Стаж: 4 месяца 27 дня

Сообщений: 10110

Создавать темы 30-Янв-2024 17:36

[Цитировать]

Деус / Deus (2022) BDRemux [H.264/1080p]- Производство: Великобритания / Highfield Grange Studios, Northfield Rd, Selby
Жанр: фантастика, детектив, приключения
Режиссер: Стив Стоун
Актеры: Клаудия Блэк, Ричард Блэквуд, Филип Дэвис, Лиза Айкхорн, Чарли Макгехан, Дэвид О`Хара, София Петтит, Бранко Томович, Кристал Ю
Описание:
На орбите Марса обнаружена таинственная чёрная сфера. Для расследования отправляется корабль «Ахиллес». После того, как экипаж из шести человек пробуждается от восьмимесячного анабиоза, сфера передает единственное слово на всех известных на Земле языках — Деус.
Продолжительность: 01:30:32
Качество видео: BDRemux (1080p)
Перевод: Многоголосый любительский (AlphaProject)
Язык озвучки: Русский, английский
Субтитры: Английские, немецкие (PGS)
Видео: AVC/H.264, 1920x1080, ~24 Mbps
Аудио #1: Е-AC3, 6 ch, 1024 Kbps - Русский
Аудио #2: DTS-HD MA, 6 ch, 4608 Kbps - Английский

MediaInfo:

Общее
Уникальный идентификатор : 46652903279798971882874050017826252925 (0x231905B83329447605A90B12D1DD287D)
Полное имя : D:\NNM\Деус\Deus 2022 BDRemux 1080p Kot Leon.mkv
Формат : Matroska
Версия формата : Version 4
Размер файла : 17,1 Гбайт
Продолжительность : 1 ч. 30 м.
Режим общего битрейта : Переменный
Общий поток : 27,0 Мбит/сек
Дата кодирования : UTC 2023-08-31 20:23:54
Программа кодирования : mkvmerge v68.0.0 ('The Curtain') 64-bit
Библиотека кодирования : libebml v1.4.2 + libmatroska v1.6.4
Видео
Идентификатор : 1
Формат : AVC
Формат/Информация : Advanced Video Codec
Профиль формата : High@L4.1
Настройки формата : CABAC / 4 Ref Frames
Параметр CABAC формата : Да
Параметр RefFrames формата : 4 кадра
Идентификатор кодека : V_MPEG4/ISO/AVC
Продолжительность : 1 ч. 30 м.
Вид битрейта : Переменный
Битрейт : 24,0 Мбит/сек
Максимальный битрейт : 30,0 Мбит/сек
Ширина : 1 920 пикселей
Высота : 1 080 пикселей
Соотношение сторон : 16:9
Режим частоты кадров : Постоянный
Частота кадров : 24,000 кадра/сек
Стандарт вещания : Component
Цветовое пространство : YUV
Субдискретизация насыщенности : 4:2:0
Битовая глубина : 8 бит
Тип развёртки : Прогрессивная
Бит/(Пиксели*Кадры) : 0.482
Размер потока : 15,2 Гбайт (89%)
Заголовок : Deus 2022 BluRay ReMux 1080p AVC DTS-HD MA 5.1-MgB
Библиотека кодирования : x264 core 148
Настройки программы : cabac=1 / ref=4 / deblock=1:0:0 / analyse=0x3:0x133 / me=umh / subme=9 / psy=1 / psy_rd=1.00:0.00 / mixed_ref=1 / me_range=24 / chroma_me=1 / trellis=2 / 8x8dct=1 / cqm=1 / deadzone=21,11 / fast_pskip=1 / chroma_qp_offset=-2 / threads=34 / lookahead_threads=2 / sliced_threads=0 / slices=4 / nr=0 / decimate=1 / interlaced=0 / minigop=1 / stitchable=1 / constrained_intra=0 / bframes=2 / b_pyramid=0 / b_adapt=2 / b_bias=0 / direct=3 / weightb=1 / open_gop=1 / weightp=1 / keyint=24 / keyint_min=1 / scenecut=40 / intra_refresh=0 / rc_lookahead=24 / rc=2pass / mbtree=1 / bitrate=24000 / ratetol=1.0 / qcomp=0.60 / qpmin=3 / qpmax=69 / qpstep=4 / cplxblur=20.0 / qblur=0.5 / vbv_maxrate=30000 / vbv_bufsize=30000 / nal_hrd=vbr / filler=0 / ip_ratio=1.40 / aq=1:1.00
Язык : English
Default : Да
Forced : Нет
Цветовой диапазон : Limited
Основные цвета : BT.709
Характеристики трансфера : BT.709
Коэффициенты матрицы : BT.709
Аудио #1
Идентификатор : 2
Формат : E-AC-3
Формат/Информация : Enhanced AC-3
Коммерческое название : Dolby Digital Plus
Идентификатор кодека : A_EAC3
Продолжительность : 1 ч. 30 м.
Вид битрейта : Постоянный
Битрейт : 1 023 Кбит/сек
Каналы : 6 каналов
Channel layout : L R C LFE Ls Rs
Частота : 48,0 КГц
Частота кадров : 93,750 кадра/сек (512 SPF)
Метод сжатия : С потерями
Размер потока : 662 Мбайт (4%)
Заголовок : AlphaProject/sparrow56
Язык : Russian
Service kind : Complete Main
Default : Да
Forced : Нет
Аудио #2
Идентификатор : 3
Формат : DTS XLL
Формат/Информация : Digital Theater Systems
Коммерческое название : DTS-HD Master Audio
Идентификатор кодека : A_DTS
Продолжительность : 1 ч. 30 м.
Вид битрейта : Переменный
Битрейт : 1 931 Кбит/сек
Каналы : 6 каналов
Channel layout : C L R Ls Rs LFE
Частота : 48,0 КГц
Частота кадров : 93,750 кадра/сек (512 SPF)
Битовая глубина : 16 бит
Метод сжатия : Без потерь
Размер потока : 1,22 Гбайт (7%)
Заголовок : English DTS-HD MA 5.1 @ 1920 Kbps - Original
Язык : English
Default : Нет
Forced : Нет
Текст #1
Идентификатор : 4
Формат : PGS
Режим смешивания : zlib
Идентификатор кодека : S_HDMV/PGS
Идентификатор кодека/Информация : Picture based subtitle format used on BDs/HD-DVDs
Продолжительность : 1 ч. 29 м.
Битрейт : 25,3 Кбит/сек
Count of elements : 1967
Размер потока : 16,3 Мбайт (0%)
Язык : English
Default : Нет
Forced : Нет
Текст #2
Идентификатор : 5
Формат : PGS
Режим смешивания : zlib
Идентификатор кодека : S_HDMV/PGS
Идентификатор кодека/Информация : Picture based subtitle format used on BDs/HD-DVDs
Продолжительность : 1 ч. 29 м.
Битрейт : 24,0 Кбит/сек
Count of elements : 1494
Размер потока : 15,4 Мбайт (0%)
Язык : German
Default : Нет
Forced : Нет
Текст #3
Идентификатор : 6
Формат : PGS
Режим смешивания : zlib
Идентификатор кодека : S_HDMV/PGS
Идентификатор кодека/Информация : Picture based subtitle format used on BDs/HD-DVDs
Продолжительность : 1 ч. 8 м.
Битрейт : 293 бит/сек
Count of elements : 10
Размер потока : 147 Кбайт (0%)
Язык : German
Default : Нет
Forced : Нет
Меню
00:00:00.000 : en:Chapter 01
00:08:33.166 : en:Chapter 02
00:16:54.083 : en:Chapter 03
00:25:06.375 : en:Chapter 04
00:34:04.375 : en:Chapter 05
00:39:20.750 : en:Chapter 06
00:48:25.916 : en:Chapter 07
00:57:16.083 : en:Chapter 08
01:05:20.750 : en:Chapter 09
01:13:06.291 : en:Chapter 10
01:20:53.958 : en:Chapter 11
01:27:39.666 : en:Chapter 12
Скриншоты: Все одноименные релизы в КлубеВремя раздачи: 24/7 (до 10-ти скачавших)
[Профиль] [ЛС]
Показать сообщения:    
Ответить на тему

Текущее время: 25-Фев 19:15

Часовой пояс: UTC ± 0



Вы не можете начинать темы
Вы не можете отвечать на сообщения
Вы не можете редактировать свои сообщения
Вы не можете удалять свои сообщения
Вы не можете голосовать в опросах
Вы не можете прикреплять файлы к сообщениям
Вы не можете скачивать файлы

[  Время выполнения: 0,035 сек  |  MySQL: 0,004 сек (11%) · 5 запр.  |  GZIP выкл  |  Память: 422,29 KB / 1,72 MB / 1,35 MB  |  Лимит: 15 16 17  ]