Космос. Смерть. Роботы / Cosmic Chaos (2023) WEB-DLRip [H.264] [Локализованный видеоряд]

Ответить на тему
 
Автор Сообщение

admin ®

Пол: Не указан

Стаж: 4 месяца 27 дня

Сообщений: 10110

Создавать темы 30-Янв-2024 17:36

[Цитировать]

Космос. Смерть. Роботы / Cosmic Chaos (2023) WEB-DLRip [H.264]- Производство: Канада, США, Великобритания, Hewes Pictures
Жанр: фантастика, триллер
Режиссер: Иван Степанов, Нгуйен-Ан Нгуйен, Блэйк Саймон
Актеры: Кен Годмир, Даррен Хопвуд, Джинэнн Гуссен, Питер Синкода, Кэролайн Деверне, Кертис Берчхольт, Криста Чендли, Дэниэл Ван Томас, Пол Статман, Гленн Багвелл
Описание:
Альманах короткометражных фильмов. Бои в виртуальной реальности, выживание в постапокалиптической пустоши, советский космический корабль, подающий сигнал бедствия…
Возраст: 18+ (зрителям, достигшим 18 лет. запрещено для детей)
Релиз от: DoMiNo & seleZen
Продолжительность: 01:27:06
Качество видео: WEB-DLRip
Перевод: Дублированный (Leff Sound)
Язык озвучки: русский
Субтитры: отсутствуют
Видео: AVC/H.264, 1024x576, ~1870 Kbps
Аудио: AC3, 6 ch, 384 Kbps

MediaInfo:

Общее
Уникальный идентификатор : 304392705359848786083035831002384373217 (0xE4FFE7117C48FD3BB9E036D90DBD15E1)
Полное имя : \Cosmic.Chaos.2023.DUB.WEB-DLRip.x264.seleZen.mkv
Формат : Matroska
Версия формата : Version 4
Размер файла : 1,37 Гбайт
Продолжительность : 1 ч. 27 м.
Общий поток : 2 251 Кбит/сек
Частота кадров : 24,000 кадра/сек
Название фильма : Cosmic.Chaos.2023.DUB.MA.WEB-DLRip.x264.seleZen
Дата кодирования : 2023-08-31 08:05:44 UTC
Программа кодирования : mkvmerge v79.0 ('Funeral Pyres') 64-bit
Библиотека кодирования : libebml v1.4.4 + libmatroska v1.7.1
Обложка : Yes
Attachments : cover.jpg / small_cover.jpg
Видео
Идентификатор : 1
Формат : AVC
Формат/Информация : Advanced Video Codec
Профиль формата : High@L4.1
Настройки формата : CABAC / 10 Ref Frames
Параметр CABAC формата : Да
Параметр RefFrames формата : 10 кадров
Идентификатор кодека : V_MPEG4/ISO/AVC
Продолжительность : 1 ч. 27 м.
Битрейт : 1 866 Кбит/сек
Ширина : 1 024 пикселя
Высота : 576 пикселей
Соотношение сторон : 16:9
Режим частоты кадров : Постоянный
Частота кадров : 24,000 кадра/сек
Цветовое пространство : YUV
Субдискретизация насыщенности : 4:2:0
Битовая глубина : 8 бит
Тип развёртки : Прогрессивная
Бит/(Пиксели*Кадры) : 0.132
Размер потока : 1,13 Гбайт (83%)
Заголовок : -=DoMiNo=-
Библиотека кодирования : x264 core 164 r3107+58M ae98796 t_mod_New | by -=DoMiNo=- | X86_64]
Настройки программы : cabac=1 / ref=10 / deblock=1:-2:-1 / analyse=0x3:0x133 / me=umh / subme=10 / psy=1 / fade_compensate=0.00 / psy_rd=1.00:0.15 / mixed_ref=1 / me_range=32 / chroma_me=1 / trellis=2 / 8x8dct=1 / cqm=0 / deadzone=21,11 / fast_pskip=0 / chroma_qp_offset=-3 / threads=18 / lookahead_threads=4 / sliced_threads=0 / nr=0 / decimate=0 / interlaced=0 / bluray_compat=0 / constrained_intra=0 / fgo=0 / bframes=12 / b_pyramid=2 / b_adapt=2 / b_bias=0 / direct=3 / weightb=1 / open_gop=0 / weightp=2 / keyint=240 / keyint_min=24 / scenecut=40 / intra_refresh=0 / rc_lookahead=60 / rc=2pass / mbtree=0 / bitrate=1866 / ratetol=1.0 / qcomp=0.70 / qpmin=0:0:0 / qpmax=69:69:69 / qpstep=4 / cplxblur=20.0 / qblur=0.5 / vbv_maxrate=50000 / vbv_bufsize=62500 / nal_hrd=none / filler=0 / ip_ratio=1.20 / pb_ratio=1.38 / aq=1:0.90 / aq-sensitivity=10.00 / aq-factor=1.00:1.00:1.00 / aq2=0 / aq3=0
Язык : English
Default : Да
Forced : Нет
Цветовой диапазон : Limited
Основные цвета : BT.709
Характеристики трансфера : BT.709
Коэффициенты матрицы : BT.709
Аудио
Идентификатор : 2
Формат : AC-3
Формат/Информация : Audio Coding 3
Коммерческое название : Dolby Digital
Идентификатор кодека : A_AC3
Продолжительность : 1 ч. 27 м.
Вид битрейта : Постоянный
Битрейт : 384 Кбит/сек
Каналы : 6 каналов
Channel layout : L R C LFE Ls Rs
Частота : 48,0 КГц
Частота кадров : 31,250 кадров/сек (1536 SPF)
Метод сжатия : С потерями
Размер потока : 239 Мбайт (17%)
Заголовок : Dub
Язык : Russian
Service kind : Complete Main
Default : Да
Forced : Нет
Меню
00:00:00.000 : en:Глава 01
00:05:50.000 : en:Глава 02
00:11:40.000 : en:Глава 03
00:17:30.000 : en:Глава 04
00:23:20.000 : en:Глава 05
00:29:10.000 : en:Глава 06
00:35:00.000 : en:Глава 07
00:40:50.000 : en:Глава 08
00:46:40.000 : en:Глава 09
00:52:30.000 : en:Глава 10
00:58:20.000 : en:Глава 11
01:04:10.000 : en:Глава 12
01:10:00.000 : en:Глава 13
01:15:50.000 : en:Глава 14
01:21:40.000 : en:Глава 15
Скриншоты:
Все одноименные релизы в КлубеВремя раздачи: 24/7 (мультитрекер)
[Профиль] [ЛС]
Показать сообщения:    
Ответить на тему

Текущее время: 25-Фев 22:26

Часовой пояс: UTC ± 0



Вы не можете начинать темы
Вы не можете отвечать на сообщения
Вы не можете редактировать свои сообщения
Вы не можете удалять свои сообщения
Вы не можете голосовать в опросах
Вы не можете прикреплять файлы к сообщениям
Вы не можете скачивать файлы

[  Время выполнения: 0,049 сек  |  MySQL: 0,004 сек (7%) · 3 запр.  |  GZIP выкл  |  Память: 422,29 KB / 1,74 MB / 1,36 MB  |  Лимит: 9 10 13  ]