Снэг Глава первая / Snag Chapter One (2023) WEB-DLRip [DVO]

Ответить на тему
 
Автор Сообщение

admin ®

Пол: Не указан

Стаж: 5 месяца 1 день

Сообщений: 10110

Создавать темы 30-Янв-2024 17:35

[Цитировать]

Снэг Глава первая / Snag Chapter One (2023) WEB-DLRip- Производство: США / BCD Travel
Жанр: боевик, триллер, детектив
Режиссер: Бен Милликен
Актеры: Бен Милликен, София Кастро, Джонни Бошан, Ана Ортис, Жанетт Агиляр Харрис, К.Дж. Перри, Хайме Камиль, Умберто Кастро, Луис Де Ла Коста, Брэндон Хадсон
Описание:
Тощий и изворотливый австралиец не от хорошей жизни становится перевозчиком наркотиков и, попав в Мексику, попадает под прицел влиятельной и жестокой Виктории. Та мечтает его извести, но парень живуч как таракан, и к тому же влюблён в её дочь Валентину, которая отвечает симпатичному "гринго" взаимностью. Но счастье влюблённых длится недолго - Валентина погибает у него на руках, и парень пытается вести тихую жизнь в отдалённом городке, пока однажды к нему не приходит старый знакомый с любопытными новостями.
Продолжительность: 01:27:05
Качество видео: WEB-DLRip)
Перевод: Профессиональный двухголосый (ViruseProject)
Язык озвучки: Русский
Субтитры: Отсутствуют
Видео: XviD, 720x304, ~2123 Kbps
Аудио: AC-3, 2 ch, 256 Kbps

MediaInfo:

Общее
Полное имя : D:\NNM\Снэг Глава первая\Snag.Chapter.One.WEB-DLRip.avi
Формат : AVI
Формат/Информация : Audio Video Interleave
Размер файла : 1,45 Гбайт
Продолжительность : 1 ч. 27 м.
Общий поток : 2 389 Кбит/сек
Программа кодирования : VirtualDubMod 1.5.10.3 | www.virtualdub-fr.org || (build 2550/release)
Библиотека кодирования : VirtualDubMod build 2550/release
Видео
Идентификатор : 0
Формат : MPEG-4 Visual
Профиль формата : Advanced Simple@L5
Настройки формата : BVOP1 / Custom Matrix
Параметр BVOP формата : 1
Параметр QPel формата : Нет
Параметр GMC формата : Без точки перехода
Параметр матрицы формата : Выборочная
Идентификатор кодека : XVID
Идентификатор кодека/Подсказка : XviD
Продолжительность : 1 ч. 27 м.
Битрейт : 2 123 Кбит/сек
Ширина : 720 пикселей
Высота : 304 пикселя
Соотношение сторон : 2,35:1
Частота кадров : 24,000 кадра/сек
Цветовое пространство : YUV
Субдискретизация насыщенности : 4:2:0
Битовая глубина : 8 бит
Тип развёртки : Прогрессивная
Метод сжатия : С потерями
Бит/(Пиксели*Кадры) : 0.404
Размер потока : 1,29 Гбайт (89%)
Библиотека кодирования : XviD 73
Аудио
Идентификатор : 1
Формат : AC-3
Формат/Информация : Audio Coding 3
Коммерческое название : Dolby Digital
Идентификатор кодека : 2000
Продолжительность : 1 ч. 27 м.
Вид битрейта : Постоянный
Битрейт : 256 Кбит/сек
Каналы : 2 канала
Channel layout : L R
Частота : 48,0 КГц
Частота кадров : 31,250 кадров/сек (1536 SPF)
Метод сжатия : С потерями
Размер потока : 159 Мбайт (11%)
Выравнивание : Разделение по промежуткам
Продолжительность промежутка : 42 мс. (1,00 видеокадр)
Время предзагрузки промежутка : 500 мс.
Service kind : Complete Main
Скриншоты: Все одноименные релизы в КлубеВремя раздачи: 24/7 (до 10-ти скачавших)
[Профиль] [ЛС]
Показать сообщения:    
Ответить на тему

Текущее время: 29-Фев 11:44

Часовой пояс: UTC ± 0



Вы не можете начинать темы
Вы не можете отвечать на сообщения
Вы не можете редактировать свои сообщения
Вы не можете удалять свои сообщения
Вы не можете голосовать в опросах
Вы не можете прикреплять файлы к сообщениям
Вы не можете скачивать файлы

[  Время выполнения: 0,036 сек  |  MySQL: 0,003 сек (8%) · 3 запр.  |  GZIP выкл  |  Память: 422,29 KB / 1,74 MB / 1,34 MB  |  Лимит: 13 12 11  ]