Мгла / La tour (2022) BDRemux [H.264/1080p]

Ответить на тему
 
Автор Сообщение

admin ®

Пол: Не указан

Стаж: 4 месяца 27 дня

Сообщений: 10110

Создавать темы 30-Янв-2024 17:35

[Цитировать]

Мгла / La tour (2022) BDRemux [H.264/1080p] - Производство: Франция / Unité, Centre national du cinéma et de l'image animée (CNC)
Жанр: ужасы, фэнтези, драма
Режиссер: Гийом Никлу
Актеры: Анжель Мак, Атик, Ахмед Абдель Лауи, Килиан Лармони, Мервей Нсомби, Николя Пиньон, Игорь Ковальский, Мари Ремон, Жюдит Виллике, Модест Нзапассара
Описание:
Проснувшись однажды утром, обитатели дома-башни обнаруживают, что все вокруг них окутано густым туманом. Странная темная материя обступает все двери и окна и уничтожает любого, кто попытается пройти сквозь нее. Стремясь выжить во мгле, люди все чаще проявляют свои самые худшие качества, и тьма поглощает их.
Возраст: 18+ (зрителям, достигшим 18 лет. запрещено для детей)
Релиз от: селезень
Продолжительность: 01:29:49
Качество видео: BDRemux
Перевод: Дублированный (СиПиАй Филмз / CPI Films)
Язык озвучки: русский, французский
Субтитры: Русские (Forced)
Видео: AVC/H.264, 1920x1080, 33.8 Мbps
Аудио 1: AC3, 6 ch, 384 Kbps - Русский
Аудио 2: DTS-HD MA, 6 ch, 1709 Kbps - французский

MediaInfo:

General
Unique ID : 52254740858096931442394305368171693271 (0x274FE5A2CE7857BE0B7644F73D6F44D7)
Complete name : G:VideoGLa.tour.2022.BDREMUX.1080p.seleZen.mkv
Format : Matroska
Format version : Version 4
File size : 22.5 GiB
Duration : 1 h 29 min
Overall bit rate mode : Variable
Overall bit rate : 35.9 Mb/s
Frame rate : 24.000 FPS
Movie name : La tour (2022) from seleZen
Encoded date : 2023-08-29 22:38:30 UTC
Writing application : mkvmerge v63.0.0 ('Everything') 64-bit
Writing library : libebml v1.4.2 + libmatroska v1.6.4
Video
ID : 1
Format : AVC
Format/Info : Advanced Video Codec
Format profile : High@L4.1
Format settings : CABAC / 3 Ref Frames
Format settings, CABAC : Yes
Format settings, Reference : 3 frames
Codec ID : V_MPEG4/ISO/AVC
Duration : 1 h 29 min
Bit rate mode : Variable
Bit rate : 33.8 Mb/s
Maximum bit rate : 40.0 Mb/s
Width : 1 920 pixels
Height : 1 080 pixels
Display aspect ratio : 16:9
Frame rate mode : Constant
Frame rate : 24.000 FPS
Color space : YUV
Chroma subsampling : 4:2:0
Bit depth : 8 bits
Scan type : Progressive
Bits/(Pixel*Frame) : 0.679
Stream size : 21.2 GiB (94%)
Language : English
Default : Yes
Forced : No
Color range : Limited
Color primaries : BT.709
Transfer characteristics : BT.709
Matrix coefficients : BT.709
Audio #1
ID : 2
Format : AC-3
Format/Info : Audio Coding 3
Commercial name : Dolby Digital
Codec ID : A_AC3
Duration : 1 h 29 min
Bit rate mode : Constant
Bit rate : 384 kb/s
Channel(s) : 6 channels
Channel layout : L R C LFE Ls Rs
Sampling rate : 48.0 kHz
Frame rate : 31.250 FPS (1536 SPF)
Compression mode : Lossy
Stream size : 247 MiB (1%)
Title : Dub
Language : Russian
Service kind : Complete Main
Default : Yes
Forced : Yes
Audio #2
ID : 3
Format : DTS XLL
Format/Info : Digital Theater Systems
Commercial name : DTS-HD Master Audio
Codec ID : A_DTS
Duration : 1 h 29 min
Bit rate mode : Variable
Bit rate : 1 709 kb/s
Channel(s) : 6 channels
Channel layout : C L R Ls Rs LFE
Sampling rate : 48.0 kHz
Frame rate : 93.750 FPS (512 SPF)
Bit depth : 16 bits
Compression mode : Lossless
Stream size : 1.07 GiB (5%)
Title : Original
Language : French
Default : No
Forced : No
Text
ID : 4
Format : UTF-8
Codec ID : S_TEXT/UTF8
Codec ID/Info : UTF-8 Plain Text
Duration : 47 s 166 ms
Bit rate : 46 b/s
Frame rate : 0.148 FPS
Count of elements : 7
Stream size : 276 Bytes (0%)
Title : Forced
Language : Russian
Default : Yes
Forced : Yes
Menu
00:00:00.000 : en:Глава 01
00:02:51.125 : en:Глава 02
00:08:48.333 : en:Глава 03
00:21:03.667 : en:Глава 04
00:32:03.750 : en:Глава 05
00:41:48.292 : en:Глава 06
00:50:29.333 : en:Глава 07
00:58:40.375 : en:Глава 08
01:05:38.583 : en:Глава 09
01:13:20.167 : en:Глава 10
01:17:39.292 : en:Глава 11
01:25:42.208 : en:Глава 12
Скриншоты:
Все одноименные релизы в КлубеВремя раздачи: 24/7 (мультитрекер)
[Профиль] [ЛС]
Показать сообщения:    
Ответить на тему

Текущее время: 25-Фев 18:54

Часовой пояс: UTC ± 0



Вы не можете начинать темы
Вы не можете отвечать на сообщения
Вы не можете редактировать свои сообщения
Вы не можете удалять свои сообщения
Вы не можете голосовать в опросах
Вы не можете прикреплять файлы к сообщениям
Вы не можете скачивать файлы

[  Время выполнения: 0,039 сек  |  MySQL: 0,004 сек (10%) · 3 запр.  |  GZIP выкл  |  Память: 422,29 KB / 1,73 MB / 1,33 MB  |  Лимит: 21 20 18  ]