Мгла / La tour (2022) BDRip [H.264/1080p]

Ответить на тему
 
Автор Сообщение

admin ®

Пол: Не указан

Стаж: 4 месяца 23 дня

Сообщений: 10110

Создавать темы 30-Янв-2024 17:35

[Цитировать]

Мгла / La tour (2022) BDRip [H.264/1080p] - Производство: Франция, Unité, Centre national du cinéma et de l'image animée (CNC)
Жанр: ужасы, фэнтези, драма
Режиссер: Гийом Никлу
Актеры: Анжель Мак, Атик, Ахмед Абдель Лауи, Килиан Лармони, Мервей Нсомби, Николя Пиньон, Игорь Ковальский, Мари Ремон, Жюдит Виллике, Модест Нзапассара
Описание:
Проснувшись однажды утром, обитатели дома-башни обнаруживают, что все вокруг них окутано густым туманом. Странная темная материя обступает все двери и окна и уничтожает любого, кто попытается пройти сквозь нее. Стремясь выжить во мгле, люди все чаще проявляют свои самые худшие качества, и тьма поглощает их.
Возраст: 18+ (зрителям, достигшим 18 лет. запрещено для детей)
Релиз от: селезень
Продолжительность: 01:29:49
Качество видео: BDRip
Перевод: Дублированный (СиПиАй Филмз / CPI Films)
Язык озвучки: русский, французский
Субтитры: Русские (Forced)
Видео: AVC/H.264, 1920x804, 11.9 Мbps
Аудио 1: AC3, 6 ch, 384 Kbps - Русский
Аудио 2: АС3, 6 ch, 640 Kbps - французский

MediaInfo:

General
Unique ID : 303966209128468872004596822383933367178 (0xE4ADC32E3C2498131AA6E4614EE9A38A)
Complete name : G:VideoGLa.tour.2022.BDRip.1080p.seleZen.mkv
Format : Matroska
Format version : Version 4
File size : 8.09 GiB
Duration : 1 h 29 min
Overall bit rate : 12.9 Mb/s
Frame rate : 24.000 FPS
Movie name : La tour (2022) from seleZen
Encoded date : 2023-08-29 23:08:02 UTC
Writing application : mkvmerge v63.0.0 ('Everything') 64-bit
Writing library : libebml v1.4.2 + libmatroska v1.6.4
Video
ID : 1
Format : AVC
Format/Info : Advanced Video Codec
Format profile : High@L4.1
Format settings : CABAC / 5 Ref Frames
Format settings, CABAC : Yes
Format settings, Reference : 5 frames
Codec ID : V_MPEG4/ISO/AVC
Duration : 1 h 29 min
Bit rate : 11.9 Mb/s
Width : 1 920 pixels
Height : 804 pixels
Display aspect ratio : 2.40:1
Frame rate mode : Constant
Frame rate : 24.000 FPS
Color space : YUV
Chroma subsampling : 4:2:0
Bit depth : 8 bits
Scan type : Progressive
Bits/(Pixel*Frame) : 0.321
Stream size : 7.45 GiB (92%)
Writing library : x264 core 161 -from seleZen
Encoding settings : cabac=1 / ref=5 / deblock=1:-2:-2 / analyse=0x3:0x133 / me=umh / subme=10 / psy=1 / psy_rd=1.01:0.02 / mixed_ref=1 / me_range=32 / chroma_me=1 / trellis=2 / 8x8dct=1 / cqm=0 / deadzone=21,11 / fast_pskip=0 / chroma_qp_offset=-3 / threads=24 / lookahead_threads=4 / sliced_threads=0 / nr=0 / decimate=0 / interlaced=0 / bluray_compat=0 / constrained_intra=0 / bframes=9 / b_pyramid=2 / b_adapt=2 / b_bias=0 / direct=3 / weightb=1 / open_gop=0 / weightp=2 / keyint=240 / keyint_min=24 / scenecut=40 / intra_refresh=0 / rc_lookahead=40 / rc=crf / mbtree=0 / crf=16.8 / qcomp=0.60 / qpmin=0 / qpmax=51 / qpstep=4 / vbv_maxrate=50000 / vbv_bufsize=62000 / crf_max=0.0 / nal_hrd=none / filler=0 / ip_ratio=1.40 / pb_ratio=1.30 / aq=3:0.80
Language : English
Default : Yes
Forced : No
Audio #1
ID : 2
Format : AC-3
Format/Info : Audio Coding 3
Commercial name : Dolby Digital
Codec ID : A_AC3
Duration : 1 h 29 min
Bit rate mode : Constant
Bit rate : 384 kb/s
Channel(s) : 6 channels
Channel layout : L R C LFE Ls Rs
Sampling rate : 48.0 kHz
Frame rate : 31.250 FPS (1536 SPF)
Compression mode : Lossy
Stream size : 247 MiB (3%)
Title : Dub
Language : Russian
Service kind : Complete Main
Default : Yes
Forced : Yes
Audio #2
ID : 3
Format : AC-3
Format/Info : Audio Coding 3
Commercial name : Dolby Digital
Codec ID : A_AC3
Duration : 1 h 29 min
Bit rate mode : Constant
Bit rate : 640 kb/s
Channel(s) : 6 channels
Channel layout : L R C LFE Ls Rs
Sampling rate : 48.0 kHz
Frame rate : 31.250 FPS (1536 SPF)
Compression mode : Lossy
Stream size : 411 MiB (5%)
Title : Original
Language : French
Service kind : Complete Main
Default : No
Forced : No
Text
ID : 4
Format : UTF-8
Codec ID : S_TEXT/UTF8
Codec ID/Info : UTF-8 Plain Text
Duration : 47 s 166 ms
Bit rate : 46 b/s
Frame rate : 0.148 FPS
Count of elements : 7
Stream size : 276 Bytes (0%)
Title : Forced
Language : Russian
Default : Yes
Forced : Yes
Menu
00:00:00.000 : en:Глава 01
00:02:51.125 : en:Глава 02
00:08:48.333 : en:Глава 03
00:21:03.667 : en:Глава 04
00:32:03.750 : en:Глава 05
00:41:48.292 : en:Глава 06
00:50:29.333 : en:Глава 07
00:58:40.375 : en:Глава 08
01:05:38.583 : en:Глава 09
01:13:20.167 : en:Глава 10
01:17:39.292 : en:Глава 11
01:25:42.208 : en:Глава 12
Скриншоты:
Все одноименные релизы в КлубеВремя раздачи: 24/7 (мультитрекер)
[Профиль] [ЛС]
Показать сообщения:    
Ответить на тему

Текущее время: 22-Фев 02:10

Часовой пояс: UTC ± 0



Вы не можете начинать темы
Вы не можете отвечать на сообщения
Вы не можете редактировать свои сообщения
Вы не можете удалять свои сообщения
Вы не можете голосовать в опросах
Вы не можете прикреплять файлы к сообщениям
Вы не можете скачивать файлы

[  Время выполнения: 0,033 сек  |  MySQL: 0,004 сек (11%) · 5 запр.  |  GZIP выкл  |  Память: 421,85 KB / 1,72 MB / 1,32 MB  |  Лимит: 9 9 11  ]