Мгла / La tour (2022) UHD BDRemux [H.265/2160p] [4K, HDR10, 10-bit]

Ответить на тему
 
Автор Сообщение

admin ®

Пол: Не указан

Стаж: 5 месяца

Сообщений: 10110

Создавать темы 30-Янв-2024 17:35

[Цитировать]

Мгла / La tour (2022) UHD BDRemux [H.265/2160p] [4K, HDR10, 10-bit] - Производство: Франция / Unité, Centre national du cinéma et de l'image animée (CNC)
Жанр: ужасы, фэнтези, драма
Режиссер: Гийом Никлу
Актеры: Анжель Мак, Атик, Ахмед Абдель Лауи, Килиан Лармони, Мервей Нсомби, Николя Пиньон, Игорь Ковальский, Мари Ремон, Жюдит Виллике, Модест Нзапассара
Описание:
Проснувшись однажды утром, обитатели дома-башни обнаруживают, что все вокруг них окутано густым туманом. Странная темная материя обступает все двери и окна и уничтожает любого, кто попытается пройти сквозь нее. Стремясь выжить во мгле, люди все чаще проявляют свои самые худшие качества, и тьма поглощает их.
Возраст: 18+ (зрителям, достигшим 18 лет. запрещено для детей)
Релиз от: селезень
Продолжительность: 01:29:49
Качество видео: UHD BDRemux
Перевод: Дублированный (СиПиАй Филмз / CPI Films)
Язык озвучки: русский, французский
Субтитры: Русские (Forced)
Видео: HEVC/H.265, 3840x2160, 72.2 Мbps
Аудио 1: AC3, 6 ch, 384 Kbps - Русский
Аудио 2: DTS-HD MA, 6 ch, 1709 Kbps - французский

MediaInfo:

General
Unique ID : 180370713735090362099020476696569831016 (0x87B222C832E2D9185FFF6841ED23DE68)
Complete name : G:VideoGLa.tour.2022.BDREMUX.2160p.HDR.seleZen.mkv
Format : Matroska
Format version : Version 4
File size : 46.6 GiB
Duration : 1 h 29 min
Overall bit rate mode : Variable
Overall bit rate : 74.3 Mb/s
Frame rate : 24.000 FPS
Movie name : La tour (2022) from seleZen
Encoded date : 2023-08-30 00:33:05 UTC
Writing application : mkvmerge v63.0.0 ('Everything') 64-bit
Writing library : libebml v1.4.2 + libmatroska v1.6.4
Video
ID : 1
ID in the original source m : 4113 (0x1011)
Format : HEVC
Format/Info : High Efficiency Video Coding
Format profile : Main 10@L5.1@High
HDR format : SMPTE ST 2086, HDR10 compatible
Codec ID : V_MPEGH/ISO/HEVC
Duration : 1 h 29 min
Bit rate : 72.2 Mb/s
Width : 3 840 pixels
Height : 2 160 pixels
Display aspect ratio : 16:9
Frame rate mode : Constant
Frame rate : 24.000 FPS
Color space : YUV
Chroma subsampling : 4:2:0 (Type 2)
Bit depth : 10 bits
Bits/(Pixel*Frame) : 0.362
Stream size : 45.3 GiB (97%)
Language : English
Default : Yes
Forced : No
Color range : Limited
Color primaries : BT.2020
Transfer characteristics : PQ
Matrix coefficients : BT.2020 non-constant
Mastering display color pri : Display P3
Mastering display luminance : min: 0.0010 cd/m2, max: 1000 cd/m2
Maximum Content Light Level : 1000 cd/m2
Maximum Frame-Average Light : 400 cd/m2
Original source medium : Blu-ray
Audio #1
ID : 2
Format : AC-3
Format/Info : Audio Coding 3
Commercial name : Dolby Digital
Codec ID : A_AC3
Duration : 1 h 29 min
Bit rate mode : Constant
Bit rate : 384 kb/s
Channel(s) : 6 channels
Channel layout : L R C LFE Ls Rs
Sampling rate : 48.0 kHz
Frame rate : 31.250 FPS (1536 SPF)
Compression mode : Lossy
Stream size : 247 MiB (1%)
Title : Dub
Language : Russian
Service kind : Complete Main
Default : Yes
Forced : Yes
Audio #2
ID : 3
ID in the original source m : 4353 (0x1101)
Format : DTS XLL
Format/Info : Digital Theater Systems
Commercial name : DTS-HD Master Audio
Codec ID : A_DTS
Duration : 1 h 29 min
Bit rate mode : Variable
Bit rate : 1 709 kb/s
Channel(s) : 6 channels
Channel layout : C L R Ls Rs LFE
Sampling rate : 48.0 kHz
Frame rate : 93.750 FPS (512 SPF)
Bit depth : 16 bits
Compression mode : Lossless
Stream size : 1.07 GiB (2%)
Title : Original
Language : French
Default : No
Forced : No
Original source medium : Blu-ray
Text
ID : 4
Format : UTF-8
Codec ID : S_TEXT/UTF8
Codec ID/Info : UTF-8 Plain Text
Duration : 47 s 166 ms
Bit rate : 46 b/s
Frame rate : 0.148 FPS
Count of elements : 7
Stream size : 276 Bytes (0%)
Title : Forced
Language : Russian
Default : Yes
Forced : Yes
Menu
00:00:00.000 : en:Chapter 01
00:02:51.125 : en:Chapter 02
00:08:48.333 : en:Chapter 03
00:21:03.666 : en:Chapter 04
00:32:03.750 : en:Chapter 05
00:41:48.291 : en:Chapter 06
00:50:29.333 : en:Chapter 07
00:58:40.375 : en:Chapter 08
01:05:38.583 : en:Chapter 09
01:13:20.166 : en:Chapter 10
01:17:39.291 : en:Chapter 11
01:25:42.208 : en:Chapter 12
Скриншоты:
Все одноименные релизы в КлубеВремя раздачи: 24/7 (мультитрекер)
[Профиль] [ЛС]
Показать сообщения:    
Ответить на тему

Текущее время: 28-Фев 22:12

Часовой пояс: UTC ± 0



Вы не можете начинать темы
Вы не можете отвечать на сообщения
Вы не можете редактировать свои сообщения
Вы не можете удалять свои сообщения
Вы не можете голосовать в опросах
Вы не можете прикреплять файлы к сообщениям
Вы не можете скачивать файлы

[  Время выполнения: 0,030 сек  |  MySQL: 0,003 сек (9%) · 3 запр.  |  GZIP выкл  |  Память: 422,29 KB / 1,72 MB / 1,32 MB  |  Лимит: 20 18 18  ]