Земля мафии / Mob Land (2023) WEB-DLRip [H.264/1080p] [DVO] [AD]

Ответить на тему
 
Автор Сообщение

admin ®

Пол: Не указан

Стаж: 5 месяца 1 день

Сообщений: 10110

Создавать темы 30-Янв-2024 17:34

[Цитировать]

Земля мафии / Mob Land (2023) WEB-DLRip [H.264/1080p] - Производство: Канада / 308 Ent, BondIt Media Capital, Buffalo 8 Productions
Жанр: боевик, триллер, криминал
Режиссер: Николас Маджио
Актеры: Шайло Фернандес, Кевин Диллон, Джон Траволта, Стивен Дорфф, Эшли Бенсон, Дональд Оум, Джейк Арсола, Тиа ДиМартино, Эмили Треймейн, Томми Дж. Кендрик и др.
Описание:
Провинциальный американский городок. Простые работяги Шелби и Трей решают устроить дерзкое ограбление, чтобы достать деньги для своей семьи. Их преступление идет не по плану, из-за чего они ввязываются в перестрелку, убивают двух человек и едва скрываются с места. Вскоре на их след нападает опытный шериф Боди Дэвис, который хочет во что бы то ни стало покончить с наркобизнесом, медленно пожирающим его родной город. Однако служитель закона оказывается вовсе не самым опасным противником Шелби и Трея. Грабители даже не подозревают, что украденные ими деньги принадлежат могущественному мафиозному боссу, который жаждет отомстить людям, сорвавшим его планы.
Рейтинг MPAA: R (лицам до 17 лет обязательно присутствие взрослого)
Релиз от: ViruseProject
Продолжительность: 01:52:37
Качество видео: WEB-DLRip 1080p
Перевод: Профессиональный двухголосый (ViruseProject)
Язык озвучки: Русский, английский
Субтитры: Русские
Реклама: Присутствуют видео вставки рекламы
Видео: AVC/H.264, 1920x800 (2.40:1), ~4487 Kbps
Аудио 1: AC3, 2 ch, 224 Kbps - русский
Аудио 2: AC3, 2 ch, 224 Kbps - английский

MediaInfo:

General
Unique ID : 217452978352275378190708958701581527096 (0xA397EB95892369F7BB72DBD337A86838)
Complete name : Mob.Land.2023.1080p.WEB-DLRip.ViruseProject.mkv
Format : Matroska
Format version : Version 4
File size : 3.88 GiB
Duration : 1 h 52 min
Overall bit rate : 4 938 kb/s
Encoded date : UTC 2023-08-30 12:59:08
Writing application : mkvmerge v8.3.0 ('Over the Horizon') 64bit
Writing library : libebml v1.3.1 + libmatroska v1.4.2
Video
ID : 1
Format : AVC
Format/Info : Advanced Video Codec
Format profile : High@L4
Format settings : CABAC / 4 Ref Frames
Format settings, CABAC : Yes
Format settings, Reference frames : 4 frames
Codec ID : V_MPEG4/ISO/AVC
Duration : 1 h 52 min
Bit rate : 4 487 kb/s
Width : 1 920 pixels
Height : 800 pixels
Display aspect ratio : 2.40:1
Frame rate mode : Constant
Frame rate : 23.976 (24000/1001) FPS
Color space : YUV
Chroma subsampling : 4:2:0
Bit depth : 8 bits
Scan type : Progressive
Bits/(Pixel*Frame) : 0.122
Stream size : 3.53 GiB (91%)
Language : English
Default : Yes
Forced : No
Color range : Limited
Color primaries : BT.709
Transfer characteristics : BT.709
Matrix coefficients : BT.709
Audio #1
ID : 2
Format : AC-3
Format/Info : Audio Coding 3
Commercial name : Dolby Digital
Codec ID : A_AC3
Duration : 1 h 52 min
Bit rate mode : Constant
Bit rate : 224 kb/s
Channel(s) : 2 channels
Channel layout : L R
Sampling rate : 48.0 kHz
Frame rate : 31.250 FPS (1536 SPF)
Compression mode : Lossy
Stream size : 180 MiB (5%)
Title : ViruseProject
Language : Russian
Service kind : Complete Main
Default : Yes
Forced : No
Audio #2
ID : 3
Format : AC-3
Format/Info : Audio Coding 3
Commercial name : Dolby Digital
Codec ID : A_AC3
Duration : 1 h 52 min
Bit rate mode : Constant
Bit rate : 224 kb/s
Channel(s) : 2 channels
Channel layout : L R
Sampling rate : 48.0 kHz
Frame rate : 31.250 FPS (1536 SPF)
Compression mode : Lossy
Stream size : 180 MiB (5%)
Language : English
Service kind : Complete Main
Default : No
Forced : No
Text
ID : 4
Format : UTF-8
Codec ID : S_TEXT/UTF8
Codec ID/Info : UTF-8 Plain Text
Duration : 1 h 43 min
Bit rate : 62 b/s
Count of elements : 1091
Stream size : 47.4 KiB (0%)
Title : ViruseProject
Language : Russian
Default : No
Forced : No
Скриншоты:
Все одноименные релизы в КлубеВремя раздачи: мультитрекерная раздача
[Профиль] [ЛС]
Показать сообщения:    
Ответить на тему

Текущее время: 29-Фев 13:10

Часовой пояс: UTC ± 0



Вы не можете начинать темы
Вы не можете отвечать на сообщения
Вы не можете редактировать свои сообщения
Вы не можете удалять свои сообщения
Вы не можете голосовать в опросах
Вы не можете прикреплять файлы к сообщениям
Вы не можете скачивать файлы

[  Время выполнения: 0,036 сек  |  MySQL: 0,002 сек (6%) · 3 запр.  |  GZIP выкл  |  Память: 422,29 KB / 1,74 MB / 1,34 MB  |  Лимит: 14 15 17  ]