Свинка / Cerdita / Piggy (2022) BDRip [H.264/1080p-LQ] [10-bit]

Ответить на тему
 
Автор Сообщение

admin ®

Пол: Не указан

Стаж: 4 месяца 23 дня

Сообщений: 10110

Создавать темы 30-Янв-2024 17:34

[Цитировать]

Свинка / Cerdita / Piggy (2022) BDRip [H.264/1080p-LQ] [10-bit] - Производство: Испания, Франция / Backup Films, Cerdita, Comunidad de Madrid
Жанр: триллер, драма
Режиссер: Карлота Переда
Актеры: Лаура Галан, Ричард Холмс, Кармен Мачи, Клаудия Салас, Ирене Феррейро, Камилль Агиляр, Хосе Пастор, Пилар Кастро, Хулиан Валькарсель-Карбонель, Фернандо Дельгадо-Хиерроо
Описание:
Девочка-подросток Сара страдает от буллинга со стороны ровесников и взрослых, которые травят ее из-за лишнего веса. Однажды свидетелем издевательств становится таинственный незнакомец на фургоне. Он похищает девушек, устроивших травлю Сары, и увозит в неизвестном направлении. Когда полиция опрашивает героиню о подробностях случившегося, Сара решает промолчать, ведь таинственный маньяк оказался единственным человеком, вставшим на ее защиту. «Свинка» — социальный триллер о психологическом и физическом насилии, которое порождает еще больше ненависти и боли.
Возраст: 18+ (зрителям, достигшим 18 лет. запрещено для детей)
Релиз от: LORDKILL
Продолжительность: 01:40:05
Качество видео: BDRip 1080p
Перевод: Дублированный (Мосфильм-Мастер)
Язык озвучки: Русский
Субтитры: Русские
Видео: AVC/H.264, 1440x1080, ~2454 kbps
Аудио: AC3, 6 ch, 448 kbps - Русский

MediaInfo:

General
Unique ID : 125294637875736916300683054255927947270 (0x5E42DE97438DD839FD95484BE4977006)
Complete name : D:\РЕМУКС\Свинка (2022).mkv
Format : Matroska
Format version : Version 4
File size : 2.03 GiB
Duration : 1 h 40 min
Overall bit rate : 2 902 kb/s
Frame rate : 24.000 FPS
Movie name : Свинка / Cerdita / Piggy (2022) - #LORDKILL#
Encoded date : 2023-08-30 17:03:14 UTC
Writing application : mkvmerge v32.0.0 ('Astral Progressions') 64-bit
Writing library : libebml v1.3.7 + libmatroska v1.5.0
Video
ID : 1
Format : AVC
Format/Info : Advanced Video Codec
Format profile : High 10@L4.1
Format settings : CABAC / 4 Ref Frames
Format settings, CABAC : Yes
Format settings, Reference : 4 frames
Codec ID : V_MPEG4/ISO/AVC
Duration : 1 h 40 min
Bit rate : 2 454 kb/s
Width : 1 440 pixels
Height : 1 080 pixels
Display aspect ratio : 4:3
Frame rate mode : Constant
Frame rate : 24.000 FPS
Color space : YUV
Chroma subsampling : 4:2:0
Bit depth : 10 bits
Scan type : Progressive
Bits/(Pixel*Frame) : 0.066
Stream size : 1.72 GiB (85%)
Writing library : x264 core 164 r3095 baee400
Encoding settings : cabac=1 / ref=4 / deblock=1:-3:-3 / analyse=0x3:0x113 / me=umh / subme=10 / psy=1 / psy_rd=1.00:0.15 / mixed_ref=1 / me_range=32 / chroma_me=1 / trellis=2 / 8x8dct=1 / cqm=0 / deadzone=6,6 / fast_pskip=0 / chroma_qp_offset=-3 / threads=17 / lookahead_threads=4 / sliced_threads=0 / nr=0 / decimate=1 / interlaced=0 / bluray_compat=0 / constrained_intra=0 / bframes=10 / b_pyramid=2 / b_adapt=2 / b_bias=0 / direct=3 / weightb=1 / open_gop=0 / weightp=2 / keyint=240 / keyint_min=24 / scenecut=40 / intra_refresh=0 / rc=crf / mbtree=0 / crf=23.0 / qcomp=0.60 / qpmin=0 / qpmax=69 / qpstep=4 / ip_ratio=1.10 / pb_ratio=1.10 / aq=3:0.70
Language : Spanish
Default : Yes
Forced : No
Color range : Limited
Color primaries : BT.709
Transfer characteristics : BT.709
Matrix coefficients : BT.709
Audio
ID : 2
Format : AC-3
Format/Info : Audio Coding 3
Commercial name : Dolby Digital
Codec ID : A_AC3
Duration : 1 h 39 min
Bit rate mode : Constant
Bit rate : 448 kb/s
Channel(s) : 6 channels
Channel layout : L R C LFE Ls Rs
Sampling rate : 48.0 kHz
Frame rate : 31.250 FPS (1536 SPF)
Compression mode : Lossy
Stream size : 319 MiB (15%)
Title : Дубляж
Language : Russian
Service kind : Complete Main
Default : Yes
Forced : No
Text
ID : 3
Format : UTF-8
Codec ID : S_TEXT/UTF8
Codec ID/Info : UTF-8 Plain Text
Duration : 1 h 32 min
Bit rate : 55 b/s
Frame rate : 0.151 FPS
Count of elements : 835
Stream size : 37.5 KiB (0%)
Title : Full
Language : Russian
Default : Yes
Forced : No
Menu
00:00:00.000 : Chapter 01
00:08:01.542 : Chapter 02
00:15:50.292 : Chapter 03
00:24:08.458 : Chapter 04
00:31:41.542 : Chapter 05
00:39:59.417 : Chapter 06
00:48:08.333 : Chapter 07
00:54:57.958 : Chapter 08
01:02:28.792 : Chapter 09
01:10:03.082 : Chapter 10
01:18:16.667 : Chapter 11
01:26:33.375 : Chapter 12
01:35:43.583 : Chapter 13
01:39:36.917 : Chapter 14
Скриншоты:
Все одноименные релизы в КлубеВремя раздачи: 24/7 (минимум до появления первых 10 скачавших)
[Профиль] [ЛС]
Показать сообщения:    
Ответить на тему

Текущее время: 22-Фев 01:05

Часовой пояс: UTC ± 0



Вы не можете начинать темы
Вы не можете отвечать на сообщения
Вы не можете редактировать свои сообщения
Вы не можете удалять свои сообщения
Вы не можете голосовать в опросах
Вы не можете прикреплять файлы к сообщениям
Вы не можете скачивать файлы

[  Время выполнения: 0,037 сек  |  MySQL: 0,003 сек (9%) · 5 запр.  |  GZIP выкл  |  Память: 421,85 KB / 1,73 MB / 1,34 MB  |  Лимит: 18 19 18  ]