Мег 2: Бездна / Meg 2: The Trench (2023) WEB-DLRip [H.264]

Ответить на тему
 
Автор Сообщение

admin ®

Пол: Не указан

Стаж: 5 месяца 1 день

Сообщений: 10110

Создавать темы 30-Янв-2024 17:34

[Цитировать]

Мег 2: Бездна / Meg 2: The Trench (2023) WEB-DLRip [H.264] - Производство: США, Китай / Apelles Entertainment, China Media Capital, Flagship Entertainment Group
Жанр: ужасы, фантастика, боевик
Режиссер: Бен Уитли
Актеры: Джейсон Стэйтем, Джеки У, Клифф Кёртис, Шуя Софиа Цай, Пейдж Кеннеди, Серхио Перис-Менчета, Скайлер Сэмюэлс, Мелиссанти Махут, Вупи Ван Раам, Киран Соня Савар
Описание:
Исследовательская группа погружается в самые глубокие впадины океана с целью выявления залежей полезных ископаемых. Их путешествие превращается в хаос, когда они сталкиваются с целой группой колоссальных мегаладонов. И теперь, чтобы выжить, им придётся во всём превзойти этих безжалостных хищников.
Рейтинг MPAA: PG-13 (детям до 13 лет просмотр нежелателен)
Релиз от: DoMiNo & seleZen
Продолжительность: 01:55:37
Качество видео: WEB-DLRip
Перевод: Дублированный (SC Produb)
Язык озвучки: русский, английский
Субтитры: русские (forced, 2 x full), английские (full, SDH, forced)
Видео: AVC/H.264, 1024x426, ~2115 Kbps
Аудио 1: AC3, 6 ch, 384 Kbps - Русский (DUB, профессиональный) SC Produb
Аудио 2: AC3, 6 ch, 448 Kbps - Английский

MediaInfo:

Общее
Уникальный идентификатор : 93357888034247541538124623486861101447 (0x463C13410709DAA7931DB4C9104EC987)
Полное имя : \Meg.2.The.Trench.2023.D.AMZN.WEB-DLRip.x264.seleZen.mkv
Формат : Matroska
Версия формата : Version 4
Размер файла : 2,38 Гбайт
Продолжительность : 1 ч. 55 м.
Общий поток : 2 950 Кбит/сек
Частота кадров : 23,976 кадра/сек
Название фильма : Meg.2.The.Trench.2023.D.AMZN.WEB-DLRip.x264.seleZen
Дата кодирования : 2023-08-30 13:56:32 UTC
Программа кодирования : mkvmerge v79.0 ('Funeral Pyres') 64-bit
Библиотека кодирования : libebml v1.4.4 + libmatroska v1.7.1
Обложка : Yes
Attachments : cover.jpg / small_cover.jpg
Видео
Идентификатор : 1
Формат : AVC
Формат/Информация : Advanced Video Codec
Профиль формата : High@L4.1
Настройки формата : CABAC / 10 Ref Frames
Параметр CABAC формата : Да
Параметр RefFrames формата : 10 кадров
Идентификатор кодека : V_MPEG4/ISO/AVC
Продолжительность : 1 ч. 55 м.
Битрейт : 2 115 Кбит/сек
Ширина : 1 024 пикселя
Высота : 426 пикселей
Соотношение сторон : 2,40:1
Режим частоты кадров : Постоянный
Частота кадров : 23,976 (24000/1001) кадра/сек
Цветовое пространство : YUV
Субдискретизация насыщенности : 4:2:0
Битовая глубина : 8 бит
Тип развёртки : Прогрессивная
Бит/(Пиксели*Кадры) : 0.202
Размер потока : 1,71 Гбайт (72%)
Заголовок : -=DoMiNo=-
Библиотека кодирования : x264 core 164 r3107+58M ae98796 t_mod_New | by -=DoMiNo=- | X86_64]
Настройки программы : cabac=1 / ref=10 / deblock=1:-2:-2 / analyse=0x3:0x133 / me=umh / subme=10 / psy=1 / fade_compensate=0.00 / psy_rd=1.01:0.05 / mixed_ref=1 / me_range=32 / chroma_me=1 / trellis=2 / 8x8dct=1 / cqm=0 / deadzone=21,11 / fast_pskip=0 / chroma_qp_offset=-3 / threads=17 / lookahead_threads=2 / sliced_threads=0 / nr=0 / decimate=1 / interlaced=0 / bluray_compat=0 / constrained_intra=0 / fgo=0 / bframes=9 / b_pyramid=2 / b_adapt=2 / b_bias=0 / direct=3 / weightb=1 / open_gop=0 / weightp=2 / keyint=240 / keyint_min=23 / scenecut=40 / intra_refresh=0 / rc_lookahead=60 / rc=crf / mbtree=0 / crf=18.8000 / qcomp=0.70 / qpmin=0:0:0 / qpmax=69:69:69 / qpstep=4 / vbv_maxrate=50000 / vbv_bufsize=62500 / crf_max=0.0 / nal_hrd=none / filler=0 / ip_ratio=1.30 / pb_ratio=1.25 / aq=1:0.90 / aq-sensitivity=10.00 / aq-factor=1.00:1.00:1.00 / aq2=0 / aq3=0
Язык : English
Default : Да
Forced : Нет
Цветовой диапазон : Limited
Основные цвета : BT.709
Характеристики трансфера : BT.709
Коэффициенты матрицы : BT.709
Аудио #1
Идентификатор : 2
Формат : AC-3
Формат/Информация : Audio Coding 3
Коммерческое название : Dolby Digital
Идентификатор кодека : A_AC3
Продолжительность : 1 ч. 55 м.
Вид битрейта : Постоянный
Битрейт : 384 Кбит/сек
Каналы : 6 каналов
Channel layout : L R C LFE Ls Rs
Частота : 48,0 КГц
Частота кадров : 31,250 кадров/сек (1536 SPF)
Метод сжатия : С потерями
Размер потока : 318 Мбайт (13%)
Заголовок : Dub_SC Produb
Язык : Russian
Service kind : Complete Main
Default : Да
Forced : Нет
Аудио #2
Идентификатор : 3
Формат : AC-3
Формат/Информация : Audio Coding 3
Коммерческое название : Dolby Digital
Идентификатор кодека : A_AC3
Продолжительность : 1 ч. 55 м.
Вид битрейта : Постоянный
Битрейт : 448 Кбит/сек
Каналы : 6 каналов
Channel layout : L R C LFE Ls Rs
Частота : 48,0 КГц
Частота кадров : 31,250 кадров/сек (1536 SPF)
Метод сжатия : С потерями
Размер потока : 371 Мбайт (15%)
Заголовок : Original
Язык : English
Service kind : Complete Main
Default : Нет
Forced : Нет
Текст #1
Идентификатор : 4
Формат : UTF-8
Идентификатор кодека : S_TEXT/UTF8
Идентификатор кодека/Информация : UTF-8 Plain Text
Продолжительность : 1 ч. 43 м.
Битрейт : 6 бит/сек
Частота кадров : 0,019 кадр/сек
Count of elements : 115
Размер потока : 4,73 Кбайт (0%)
Заголовок : Forced
Язык : Russian
Default : Да
Forced : Нет
Текст #2
Идентификатор : 5
Формат : UTF-8
Идентификатор кодека : S_TEXT/UTF8
Идентификатор кодека/Информация : UTF-8 Plain Text
Продолжительность : 1 ч. 54 м.
Битрейт : 69 бит/сек
Частота кадров : 0,216 кадр/сек
Count of elements : 1486
Размер потока : 58,3 Кбайт (0%)
Заголовок : Full [Off.]
Язык : Russian
Default : Нет
Forced : Нет
Текст #3
Идентификатор : 6
Формат : UTF-8
Идентификатор кодека : S_TEXT/UTF8
Идентификатор кодека/Информация : UTF-8 Plain Text
Продолжительность : 1 ч. 45 м.
Битрейт : 90 бит/сек
Частота кадров : 0,235 кадр/сек
Count of elements : 1482
Размер потока : 69,8 Кбайт (0%)
Заголовок : Full v.2
Язык : Russian
Default : Нет
Forced : Нет
Текст #4
Идентификатор : 7
Формат : UTF-8
Идентификатор кодека : S_TEXT/UTF8
Идентификатор кодека/Информация : UTF-8 Plain Text
Продолжительность : 1 ч. 48 м.
Битрейт : 52 бит/сек
Частота кадров : 0,252 кадр/сек
Count of elements : 1639
Размер потока : 41,8 Кбайт (0%)
Заголовок : Full
Язык : English
Default : Нет
Forced : Нет
Текст #5
Идентификатор : 8
Формат : UTF-8
Идентификатор кодека : S_TEXT/UTF8
Идентификатор кодека/Информация : UTF-8 Plain Text
Продолжительность : 1 ч. 50 м.
Битрейт : 67 бит/сек
Частота кадров : 0,310 кадр/сек
Count of elements : 2057
Размер потока : 54,9 Кбайт (0%)
Заголовок : SDH
Язык : English
Default : Нет
Forced : Нет
Текст #6
Идентификатор : 9
Формат : UTF-8
Идентификатор кодека : S_TEXT/UTF8
Идентификатор кодека/Информация : UTF-8 Plain Text
Продолжительность : 1 ч. 35 м.
Битрейт : 3 бит/сек
Частота кадров : 0,016 кадр/сек
Count of elements : 90
Размер потока : 2,71 Кбайт (0%)
Заголовок : Forced
Язык : English
Default : Нет
Forced : Нет
Меню
00:00:00.000 : en:Chapter 01
00:08:42.553 : en:Chapter 02
00:18:00.361 : en:Chapter 03
00:27:14.290 : en:Chapter 04
00:36:32.014 : en:Chapter 05
00:44:01.380 : en:Chapter 06
00:51:21.320 : en:Chapter 07
00:58:46.265 : en:Chapter 08
01:08:28.138 : en:Chapter 09
01:17:17.585 : en:Chapter 10
01:26:17.458 : en:Chapter 11
01:33:35.229 : en:Chapter 12
01:39:34.171 : en:Chapter 13
01:46:05.646 : en:Chapter 14
Скриншоты:
Все одноименные релизы в КлубеВремя раздачи: 24/7 (мультитрекер)
[Профиль] [ЛС]
Показать сообщения:    
Ответить на тему

Текущее время: 29-Фев 12:57

Часовой пояс: UTC ± 0



Вы не можете начинать темы
Вы не можете отвечать на сообщения
Вы не можете редактировать свои сообщения
Вы не можете удалять свои сообщения
Вы не можете голосовать в опросах
Вы не можете прикреплять файлы к сообщениям
Вы не можете скачивать файлы

[  Время выполнения: 0,041 сек  |  MySQL: 0,003 сек (7%) · 3 запр.  |  GZIP выкл  |  Память: 422,29 KB / 1,76 MB / 1,38 MB  |  Лимит: 20 20 18  ]