Мег 2: Бездна / Meg 2: The Trench (2023) WEB-DL [H.264/720p]

Ответить на тему
 
Автор Сообщение

admin ®

Пол: Не указан

Стаж: 5 месяца

Сообщений: 10110

Создавать темы 30-Янв-2024 17:34

[Цитировать]

Мег 2: Бездна / Meg 2: The Trench (2023) WEB-DL [H.264/720p] - Производство: США, Китай / Apelles Entertainment, China Media Capital, Flagship Entertainment Group
Жанр: ужасы, фантастика, боевик
Режиссер: Бен Уитли
Актеры: Джейсон Стэйтем, Джеки У, Клифф Кёртис, Шуя Софиа Цай, Пейдж Кеннеди, Серхио Перис-Менчета, Скайлер Сэмюэлс, Мелиссанти Махут, Вупи Ван Раам, Киран Соня Савар
Описание:
Исследовательская группа погружается в самые глубокие впадины океана с целью выявления залежей полезных ископаемых. Их путешествие превращается в хаос, когда они сталкиваются с целой группой колоссальных мегаладонов. И теперь, чтобы выжить, им придётся во всём превзойти этих безжалостных хищников.
Рейтинг MPAA: PG-13 (детям до 13 лет просмотр нежелателен)
Релиз от: seleZen
Продолжительность: 01:55:38
Качество видео: WEB-DL
Перевод: Дублированный (SC Produb), Многоголосый профессиональный (TVShows)
Язык озвучки: русский, английский
Субтитры: Русские (forced, 2 x full), украинские (forced), английские (forced, full, SDH)
Видео: AVC/H.264, 1280x720, ~4000 Kbps
Аудио 1: AC3, 6 ch, 384 Kbps - русский (DUB, SC Produb) профессиональный
Аудио 2: E-AC3, 6 ch, 384 Kbps - русский (DUB, SC Produb) профессиональный
Аудио 3: AC3, 6 ch, 384 Kbps - русский (MVO, TVShows)
Аудио 4: E-AC3 JOC, 6 ch, 768 Kbps - английский

MediaInfo:

Общее
Уникальный идентификатор : 52804301377998792080331267148430321640 (0x27B9BD0FC0F7B964071D512D003227E8)
Полное имя : \Meg.2-The.Trench.2023.D.MVO.WEB-DL.720p.MA.x264.seleZen.mkv
Формат : Matroska
Версия формата : Version 4
Размер файла : 4,70 Гбайт
Продолжительность : 1 ч. 55 м.
Общий поток : 5 813 Кбит/сек
Частота кадров : 23,976 кадра/сек
Название фильма : Meg.2-The.Trench.2023.D.MVO.WEB-DL.720p.MA.x264.seleZen
Дата кодирования : 2023-08-30 14:20:41 UTC
Программа кодирования : mkvmerge v79.0 ('Funeral Pyres') 64-bit
Библиотека кодирования : libebml v1.4.4 + libmatroska v1.7.1
Обложка : Yes
Attachments : cover.jpg / small_cover.jpg
Видео
Идентификатор : 1
Формат : AVC
Формат/Информация : Advanced Video Codec
Профиль формата : High@L4
Настройки формата : CABAC / 8 Ref Frames
Параметр CABAC формата : Да
Параметр RefFrames формата : 8 кадров
Идентификатор кодека : V_MPEG4/ISO/AVC
Продолжительность : 1 ч. 55 м.
Битрейт : 4 000 Кбит/сек
Ширина : 1 280 пикселей
Высота : 720 пикселей
Соотношение сторон : 16:9
Режим частоты кадров : Постоянный
Частота кадров : 23,976 (24000/1001) кадра/сек
Цветовое пространство : YUV
Субдискретизация насыщенности : 4:2:0
Битовая глубина : 8 бит
Тип развёртки : Прогрессивная
Бит/(Пиксели*Кадры) : 0.181
Размер потока : 3,14 Гбайт (67%)
Заголовок : -=DoMiNo=-
Библиотека кодирования : x264 core 164 r3094 bfc87b7
Настройки программы : cabac=1 / ref=8 / deblock=1:-1:-1 / analyse=0x3:0x133 / me=umh / subme=9 / psy=1 / psy_rd=1.00:0.15 / mixed_ref=1 / me_range=16 / chroma_me=1 / trellis=2 / 8x8dct=1 / cqm=0 / deadzone=21,11 / fast_pskip=1 / chroma_qp_offset=-3 / threads=8 / lookahead_threads=1 / sliced_threads=0 / nr=0 / decimate=1 / interlaced=0 / bluray_compat=0 / stitchable=1 / constrained_intra=0 / bframes=3 / b_pyramid=2 / b_adapt=2 / b_bias=0 / direct=3 / weightb=1 / open_gop=0 / weightp=2 / keyint=48 / keyint_min=4 / scenecut=0 / intra_refresh=0 / rc_lookahead=48 / rc=abr / mbtree=1 / bitrate=4000 / ratetol=1.0 / qcomp=0.60 / qpmin=0 / qpmax=69 / qpstep=4 / vbv_maxrate=4400 / vbv_bufsize=8000 / nal_hrd=none / filler=0 / ip_ratio=1.40 / aq=1:1.00
Язык : English
Default : Да
Forced : Нет
Цветовой диапазон : Limited
Основные цвета : BT.709
Характеристики трансфера : BT.709
Коэффициенты матрицы : BT.709
Аудио #1
Идентификатор : 2
Формат : AC-3
Формат/Информация : Audio Coding 3
Коммерческое название : Dolby Digital
Идентификатор кодека : A_AC3
Продолжительность : 1 ч. 55 м.
Вид битрейта : Постоянный
Битрейт : 384 Кбит/сек
Каналы : 6 каналов
Channel layout : L R C LFE Ls Rs
Частота : 48,0 КГц
Частота кадров : 31,250 кадров/сек (1536 SPF)
Метод сжатия : С потерями
Размер потока : 318 Мбайт (7%)
Заголовок : Dub_SC Produb
Язык : Russian
Service kind : Complete Main
Default : Да
Forced : Нет
Аудио #2
Идентификатор : 3
Формат : E-AC-3
Формат/Информация : Enhanced AC-3
Коммерческое название : Dolby Digital Plus
Идентификатор кодека : A_EAC3
Продолжительность : 1 ч. 55 м.
Вид битрейта : Постоянный
Битрейт : 384 Кбит/сек
Каналы : 6 каналов
Channel layout : L R C LFE Ls Rs
Частота : 48,0 КГц
Частота кадров : 31,250 кадров/сек (1536 SPF)
Метод сжатия : С потерями
Размер потока : 318 Мбайт (7%)
Заголовок : Dub_SC Produb
Язык : Russian
Service kind : Complete Main
Default : Нет
Forced : Нет
Аудио #3
Идентификатор : 4
Формат : AC-3
Формат/Информация : Audio Coding 3
Коммерческое название : Dolby Digital
Идентификатор кодека : A_AC3
Продолжительность : 1 ч. 55 м.
Вид битрейта : Постоянный
Битрейт : 384 Кбит/сек
Каналы : 6 каналов
Channel layout : L R C LFE Ls Rs
Частота : 48,0 КГц
Частота кадров : 31,250 кадров/сек (1536 SPF)
Метод сжатия : С потерями
Размер потока : 318 Мбайт (7%)
Заголовок : TVShows
Язык : Russian
Service kind : Complete Main
Default : Нет
Forced : Нет
Аудио #4
Идентификатор : 5
Формат : E-AC-3 JOC
Формат/Информация : Enhanced AC-3 with Joint Object Coding
Коммерческое название : Dolby Digital Plus with Dolby Atmos
Идентификатор кодека : A_EAC3
Продолжительность : 1 ч. 55 м.
Вид битрейта : Постоянный
Битрейт : 768 Кбит/сек
Каналы : 6 каналов
Channel layout : L R C LFE Ls Rs
Частота : 48,0 КГц
Частота кадров : 31,250 кадров/сек (1536 SPF)
Метод сжатия : С потерями
Размер потока : 635 Мбайт (13%)
Заголовок : Original
Язык : English
Service kind : Complete Main
Default : Нет
Forced : Нет
Complexity index : 16
Number of dynamic objects : 15
Bed channel count : 1 канал
Bed channel configuration : LFE
Текст #1
Идентификатор : 6
Формат : UTF-8
Идентификатор кодека : S_TEXT/UTF8
Идентификатор кодека/Информация : UTF-8 Plain Text
Продолжительность : 1 ч. 43 м.
Битрейт : 6 бит/сек
Частота кадров : 0,019 кадр/сек
Count of elements : 115
Размер потока : 4,73 Кбайт (0%)
Заголовок : Forced
Язык : Russian
Default : Да
Forced : Нет
Текст #2
Идентификатор : 7
Формат : UTF-8
Идентификатор кодека : S_TEXT/UTF8
Идентификатор кодека/Информация : UTF-8 Plain Text
Продолжительность : 1 ч. 54 м.
Битрейт : 69 бит/сек
Частота кадров : 0,216 кадр/сек
Count of elements : 1486
Размер потока : 58,3 Кбайт (0%)
Заголовок : Full [Off.]
Язык : Russian
Default : Нет
Forced : Нет
Текст #3
Идентификатор : 8
Формат : UTF-8
Идентификатор кодека : S_TEXT/UTF8
Идентификатор кодека/Информация : UTF-8 Plain Text
Продолжительность : 1 ч. 45 м.
Битрейт : 90 бит/сек
Частота кадров : 0,235 кадр/сек
Count of elements : 1482
Размер потока : 69,8 Кбайт (0%)
Заголовок : Full v.2
Язык : Russian
Default : Нет
Forced : Нет
Текст #4
Идентификатор : 9
Формат : UTF-8
Идентификатор кодека : S_TEXT/UTF8
Идентификатор кодека/Информация : UTF-8 Plain Text
Продолжительность : 1 ч. 43 м.
Битрейт : 7 бит/сек
Частота кадров : 0,018 кадр/сек
Count of elements : 113
Размер потока : 5,48 Кбайт (0%)
Заголовок : Forced
Язык : Ukrainian
Default : Нет
Forced : Нет
Текст #5
Идентификатор : 10
Формат : UTF-8
Идентификатор кодека : S_TEXT/UTF8
Идентификатор кодека/Информация : UTF-8 Plain Text
Продолжительность : 1 ч. 35 м.
Битрейт : 3 бит/сек
Частота кадров : 0,016 кадр/сек
Count of elements : 90
Размер потока : 2,71 Кбайт (0%)
Заголовок : Forced
Язык : English
Default : Нет
Forced : Нет
Текст #6
Идентификатор : 11
Формат : UTF-8
Идентификатор кодека : S_TEXT/UTF8
Идентификатор кодека/Информация : UTF-8 Plain Text
Продолжительность : 1 ч. 48 м.
Битрейт : 52 бит/сек
Частота кадров : 0,252 кадр/сек
Count of elements : 1639
Размер потока : 41,8 Кбайт (0%)
Заголовок : Full
Язык : English
Default : Нет
Forced : Нет
Текст #7
Идентификатор : 12
Формат : UTF-8
Идентификатор кодека : S_TEXT/UTF8
Идентификатор кодека/Информация : UTF-8 Plain Text
Продолжительность : 1 ч. 50 м.
Битрейт : 67 бит/сек
Частота кадров : 0,310 кадр/сек
Count of elements : 2057
Размер потока : 54,9 Кбайт (0%)
Заголовок : SDH
Язык : English
Default : Нет
Forced : Нет
Меню
00:00:00.000 : en:Chapter 01
00:08:43.690 : en:Chapter 02
00:18:01.498 : en:Chapter 03
00:27:15.427 : en:Chapter 04
00:36:33.151 : en:Chapter 05
00:44:02.517 : en:Chapter 06
00:51:22.457 : en:Chapter 07
00:58:47.402 : en:Chapter 08
01:08:29.275 : en:Chapter 09
01:17:18.722 : en:Chapter 10
01:26:18.595 : en:Chapter 11
01:33:36.366 : en:Chapter 12
01:39:35.308 : en:Chapter 13
01:46:06.783 : en:Chapter 14
Скриншоты:
Все одноименные релизы в КлубеВремя раздачи: 24/7 (мультитрекер)
[Профиль] [ЛС]
Показать сообщения:    
Ответить на тему

Текущее время: 29-Фев 10:57

Часовой пояс: UTC ± 0



Вы не можете начинать темы
Вы не можете отвечать на сообщения
Вы не можете редактировать свои сообщения
Вы не можете удалять свои сообщения
Вы не можете голосовать в опросах
Вы не можете прикреплять файлы к сообщениям
Вы не можете скачивать файлы

[  Время выполнения: 0,043 сек  |  MySQL: 0,004 сек (9%) · 3 запр.  |  GZIP выкл  |  Память: 422,29 KB / 1,77 MB / 1,4 MB  |  Лимит: 10 11 11  ]