Земля мафии / Mob Land (2023) WEB-DLRip [H.264] [DVO]

Ответить на тему
 
Автор Сообщение

admin ®

Пол: Не указан

Стаж: 4 месяца 23 дня

Сообщений: 10110

Создавать темы 30-Янв-2024 17:33

[Цитировать]

Земля мафии / Mob Land (2023) WEB-DLRip - Производство: Канада / 308 Ent, BondIt Media Capital, Buffalo 8 Productions
Жанр: боевик, триллер, криминал
Режиссер: Николас Маджио
Продюсер: Берни Гьюисслер, Дэнни Чан, Эдвард Дрейк
Актеры: Шайло Фернандес, Кевин Диллон, Джон Траволта, Стивен Дорфф, Эшли Бенсон, Дональд Оум, Джейк Арсола, Тиа ДиМартино, Эмили Треймейн, Томми Дж. Кендрик
Описание:
Провинциальный американский городок. Простые работяги Шелби и Трей решают устроить дерзкое ограбление, чтобы достать деньги для своей семьи. Их преступление идет не по плану, из-за чего они ввязываются в перестрелку, убивают двух человек и едва скрываются с места. Вскоре на их след нападает опытный шериф Боди Дэвис, который хочет во что бы то ни стало покончить с наркобизнесом, медленно пожирающим его родной город. Однако служитель закона оказывается вовсе не самым опасным противником Шелби и Трея. Грабители даже не подозревают, что украденные ими деньги принадлежат могущественному мафиозному боссу, который жаждет отомстить людям, сорвавшим его планы.
Рейтинг MPAA: R (лицам до 17 лет обязательно присутствие взрослого)
Релиз от: Rip by vitolinform
Продолжительность: 01:50:57
Качество видео: WEB-DLRip
Перевод: Двуголосый профессиональный (ViruseProject)
Язык озвучки: русский, английский
Субтитры: русские, фнглийские (full, SDH), французские
Видео: AVC/H.264, 1024x426, ~1981 Rbps
Аудио 1: AC3, 2 ch, 224 Кbps | Русский (DVO, ViruseProject)
Аудио 2: AC3, 6 ch, 448 Кbps | Английский

MediaInfo:

raw [info]: 1024x426p 1:1 @ 24000/1001 fps (cfr)
x264 [info]: using SAR=1/1
x264 [info]: using cpu capabilities: MMX2 SSE2Fast SSSE3 SSE4.2 AVX FMA3 BMI2 AVX2
x264 [info]: profile High, level 4.1, 4:2:0, 8-bit
x264 [info]: frame I:1018 Avg QP:14.74 size: 55124
x264 [info]: frame P:34937 Avg QP:16.17 size: 24177
x264 [info]: frame B:123675 Avg QP:19.23 size: 6046
x264 [info]: consecutive B-frames: 2.4% 3.0% 6.3% 24.0% 15.7% 31.9% 7.2% 4.8% 1.9% 1.3% 1.5%
x264 [info]: mb I I16..4: 8.6% 76.1% 15.3%
x264 [info]: mb P I16..4: 1.7% 14.0% 1.0% P16..4: 35.0% 28.2% 15.9% 0.0% 0.0% skip: 4.2%
x264 [info]: mb B I16..4: 0.1% 0.5% 0.0% B16..8: 42.2% 13.2% 3.5% direct: 4.4% skip:36.1% L0:45.1% L1:46.4% BI: 8.4%
x264 [info]: 8x8 transform intra:83.1% inter:57.7%
x264 [info]: coded y,uvDC,uvAC intra: 89.6% 82.8% 72.4% inter: 24.1% 18.3% 9.8%
x264 [info]: i16 v,h,dc,p: 55% 16% 16% 13%
x264 [info]: i8 v,h,dc,ddl,ddr,vr,hd,vl,hu: 9% 10% 17% 9% 11% 10% 11% 10% 13%
x264 [info]: i4 v,h,dc,ddl,ddr,vr,hd,vl,hu: 11% 10% 6% 9% 14% 13% 13% 11% 13%
x264 [info]: i8c dc,h,v,p: 55% 21% 14% 11%
x264 [info]: Weighted P-Frames: Y:3.0% UV:1.8%
x264 [info]: ref P L0: 48.6% 8.8% 15.0% 5.8% 4.8% 3.4% 3.1% 1.6% 1.6% 1.3% 1.3% 1.0% 1.1% 0.9% 1.0% 0.6%
x264 [info]: ref B L0: 68.9% 12.2% 5.9% 3.0% 2.1% 1.8% 1.4% 0.9% 0.8% 0.7% 0.6% 0.6% 0.5% 0.4% 0.1%
x264 [info]: ref B L1: 93.0% 7.0%
x264 [info]: kb/s:1980.81
x264 [total]: encoded 159630 frames, 8.53 fps, 1980.81 kb/s
======================================================================
General
Unique ID : 184365118999203222651083548665661339618 (0x8AB36E2AA364C326E80DD85AD73FB7E2)
Complete name : D:\Zemlya.mafii.2023.AMZN.WEB-DLRip.AVC.mkv
Format : Matroska
Format version : Version 4
File size : 2.06 GiB
Duration : 1 h 50 min
Overall bit rate : 2 655 kb/s
Frame rate : 23.976 FPS
Movie name : Mob Land (2023) WEB-DLRip AVC _ vitolinform
Encoded date : 2023-08-30 21:42:54 UTC
Writing application : mkvmerge v76.0 ('Celebration') 64-bit
Writing library : libebml v1.4.4 + libmatroska v1.7.1
Attachments : poster.jpg / log.log
Video
ID : 1
Format : AVC
Format/Info : Advanced Video Codec
Format profile : High@L4.1
Format settings : CABAC / 16 Ref Frames
Format settings, CABAC : Yes
Format settings, Reference frames : 16 frames
Codec ID : V_MPEG4/ISO/AVC
Duration : 1 h 50 min
Bit rate : 1 981 kb/s
Width : 1 024 pixels
Height : 426 pixels
Display aspect ratio : 2.40:1
Frame rate mode : Constant
Frame rate : 23.976 (24000/1001) FPS
Color space : YUV
Chroma subsampling : 4:2:0
Bit depth : 8 bits
Scan type : Progressive
Bits/(Pixel*Frame) : 0.189
Stream size : 1.54 GiB (75%)
Title : Земля мафии / Mob Land (2023)
Writing library : x264 core 164 r3107 a8b68eb
Encoding settings : cabac=1 / ref=16 / deblock=1:-3:-3 / analyse=0x3:0x113 / me=umh / subme=10 / psy=1 / psy_rd=1.00:0.05 / mixed_ref=1 / me_range=32 / chroma_me=1 / trellis=2 / 8x8dct=1 / cqm=0 / deadzone=21,11 / fast_pskip=0 / chroma_qp_offset=-3 / threads=12 / lookahead_threads=5 / sliced_threads=0 / nr=0 / decimate=0 / interlaced=0 / bluray_compat=0 / constrained_intra=0 / bframes=10 / b_pyramid=2 / b_adapt=2 / b_bias=0 / direct=1 / weightb=1 / open_gop=0 / weightp=2 / keyint=240 / keyint_min=24 / scenecut=40 / intra_refresh=0 / rc_lookahead=40 / rc=crf / mbtree=0 / crf=18.0 / qcomp=0.60 / qpmin=0 / qpmax=69 / qpstep=4 / vbv_maxrate=50000 / vbv_bufsize=62500 / crf_max=0.0 / nal_hrd=none / filler=0 / ip_ratio=1.40 / pb_ratio=1.40 / aq=1:1.00
Language : English
Default : Yes
Forced : No
Color range : Limited
Color primaries : BT.709
Transfer characteristics : BT.709
Matrix coefficients : BT.709
Audio #1
ID : 2
Format : AC-3
Format/Info : Audio Coding 3
Commercial name : Dolby Digital
Codec ID : A_AC3
Duration : 1 h 50 min
Bit rate mode : Constant
Bit rate : 224 kb/s
Channel(s) : 2 channels
Channel layout : L R
Sampling rate : 48.0 kHz
Frame rate : 31.250 FPS (1536 SPF)
Compression mode : Lossy
Stream size : 178 MiB (8%)
Title : DVO | ViruseProject
Language : Russian
Service kind : Complete Main
Default : Yes
Forced : No
Audio #2
ID : 3
Format : AC-3
Format/Info : Audio Coding 3
Commercial name : Dolby Digital
Codec ID : A_AC3
Duration : 1 h 50 min
Bit rate mode : Constant
Bit rate : 448 kb/s
Channel(s) : 6 channels
Channel layout : L R C LFE Ls Rs
Sampling rate : 48.0 kHz
Frame rate : 31.250 FPS (1536 SPF)
Compression mode : Lossy
Stream size : 356 MiB (17%)
Title : English
Language : English
Service kind : Complete Main
Default : No
Forced : No
Text #1
ID : 4
Format : UTF-8
Codec ID : S_TEXT/UTF8
Codec ID/Info : UTF-8 Plain Text
Duration : 1 h 42 min
Bit rate : 63 b/s
Frame rate : 0.178 FPS
Count of elements : 1095
Stream size : 47.4 KiB (0%)
Title : Full
Language : Russian
Default : No
Forced : No
Text #2
ID : 5
Format : UTF-8
Codec ID : S_TEXT/UTF8
Codec ID/Info : UTF-8 Plain Text
Duration : 1 h 48 min
Bit rate : 44 b/s
Frame rate : 0.189 FPS
Count of elements : 1237
Stream size : 35.8 KiB (0%)
Title : Full
Language : English
Default : No
Forced : No
Text #3
ID : 6
Format : UTF-8
Codec ID : S_TEXT/UTF8
Codec ID/Info : UTF-8 Plain Text
Duration : 1 h 50 min
Bit rate : 60 b/s
Frame rate : 0.262 FPS
Count of elements : 1740
Stream size : 48.6 KiB (0%)
Title : SDH
Language : English
Default : No
Forced : No
Text #4
ID : 7
Format : UTF-8
Codec ID : S_TEXT/UTF8
Codec ID/Info : UTF-8 Plain Text
Duration : 1 h 42 min
Bit rate : 44 b/s
Frame rate : 0.183 FPS
Count of elements : 1130
Stream size : 33.4 KiB (0%)
Title : Full
Language : French
Default : No
Forced : No
Скриншоты:
Все одноименные релизы в КлубеВремя раздачи: как минимум до появления первых 3-5 скачавших, 24/7 (мультитрекерная раздача)
[Профиль] [ЛС]
Показать сообщения:    
Ответить на тему

Текущее время: 22-Фев 01:26

Часовой пояс: UTC ± 0



Вы не можете начинать темы
Вы не можете отвечать на сообщения
Вы не можете редактировать свои сообщения
Вы не можете удалять свои сообщения
Вы не можете голосовать в опросах
Вы не можете прикреплять файлы к сообщениям
Вы не можете скачивать файлы

[  Время выполнения: 0,042 сек  |  MySQL: 0,004 сек (9%) · 3 запр.  |  GZIP выкл  |  Память: 421,85 KB / 1,75 MB / 1,37 MB  |  Лимит: 19 19 19  ]