Последнее путешествие «Деметра» / The Last Voyage of the Demeter (2023) WEB-DLRip [H.264/1080p] [MVO, AD]

Ответить на тему
 
Автор Сообщение

admin ®

Пол: Не указан

Стаж: 5 месяца 1 день

Сообщений: 10110

Создавать темы 30-Янв-2024 17:33

[Цитировать]

Последнее путешествие «Деметра» / The Last Voyage of the Demeter (2023)
WEB-DLRip [H.264/1080p]
- Производство: США, Великобритания, Мальта, Италия, Германия / Amblin Partners, Dreamworks Pictures, Firebrand Video
Жанр: ужасы
Режиссер: Андре Эвредал
Актеры: Кори Хокинс, Эшлинг Франчози, Лиам Каннингэм, Давид Дастмалчян, Крис Уолли, Джон Джон Брионес, Стефан Капичич, Мартин Фурулунд, Николай Николаефф, Вуди Норман
Описание:
Дракула путешествует в Лондон на русском корабле «Деметр» и потихоньку ест матросов и пассажиров.
Рейтинг MPAA: R (лицам до 17 лет обязательно присутствие взрослого)
Продолжительность: 01:55:14
Качество видео: WEB-DLRip (1080p-LQ)
Перевод: Многоголосый любительский
Язык озвучки: Русский
Субтитры: Отсутствуют.
Реклама: Присутствует баннер.
Видео: AVC/H.264, 1920x804, ~10,0 Mbps
Аудио: AC3, 2 ch, 384 Kbps

MediaInfo:

Общее
Общее
Полное имя : D:\NNM\Последнее путешествие\The.Last.Voyage.of.the.Demeter.2023.WEB-DLRip.1080p-LQ.mkv
Формат : Matroska
Версия формата : Version 2
Размер файла : 8,34 Гбайт
Продолжительность : 1 ч. 55 м.
Режим общего битрейта : Постоянный
Общий поток : 10,4 Мбит/сек
Программа кодирования : libmatroska 1.4.1
Библиотека кодирования : SolveigMM Matroska Muxer Version 1.0.1904.23
Видео
Идентификатор : 1
Формат : AVC
Формат/Информация : Advanced Video Codec
Профиль формата : High@L4.1
Настройки формата : CABAC / 4 Ref Frames
Параметр CABAC формата : Да
Параметр RefFrames формата : 4 кадра
Идентификатор кодека : V_MPEG4/ISO/AVC
Продолжительность : 1 ч. 55 м.
Вид битрейта : Постоянный
Битрейт : 10 000 Кбит/сек
Ширина : 1 920 пикселей
Высота : 804 пикселя
Соотношение сторон : 2,40:1
Режим частоты кадров : Постоянный
Частота кадров : 23,976 (24000/1001) кадра/сек
Стандарт вещания : Component
Цветовое пространство : YUV
Субдискретизация насыщенности : 4:2:0
Битовая глубина : 8 бит
Тип развёртки : Прогрессивная
Бит/(Пиксели*Кадры) : 0.270
Размер потока : 7,86 Гбайт (94%)
Default : Нет
Forced : Нет
Цветовой диапазон : Limited
Основные цвета : BT.709
Характеристики трансфера : BT.709
Коэффициенты матрицы : BT.709
Аудио
Идентификатор : 2
Формат : AC-3
Формат/Информация : Audio Coding 3
Коммерческое название : Dolby Digital
Идентификатор кодека : A_AC3
Продолжительность : 1 ч. 55 м.
Вид битрейта : Постоянный
Битрейт : 384 Кбит/сек
Каналы : 2 канала
Channel layout : L R
Частота : 48,0 КГц
Частота кадров : 31,250 кадров/сек (1536 SPF)
Метод сжатия : С потерями
Размер потока : 317 Мбайт (4%)
Язык : Russian
Service kind : Complete Main
Default : Нет
Forced : Нет
Скриншоты:
Все одноименные релизы в КлубеВремя раздачи: 24/7 (до 10-ти скачавших)
[Профиль] [ЛС]
Показать сообщения:    
Ответить на тему

Текущее время: 29-Фев 12:51

Часовой пояс: UTC ± 0



Вы не можете начинать темы
Вы не можете отвечать на сообщения
Вы не можете редактировать свои сообщения
Вы не можете удалять свои сообщения
Вы не можете голосовать в опросах
Вы не можете прикреплять файлы к сообщениям
Вы не можете скачивать файлы

[  Время выполнения: 0,032 сек  |  MySQL: 0,003 сек (9%) · 3 запр.  |  GZIP выкл  |  Память: 422,29 KB / 1,74 MB / 1,34 MB  |  Лимит: 20 18 17  ]