Космос. Смерть. Роботы / Cosmic Chaos (2023) WEB-DLRip

Ответить на тему
 
Автор Сообщение

admin ®

Пол: Не указан

Стаж: 5 месяца

Сообщений: 10110

Создавать темы 30-Янв-2024 17:33

[Цитировать]

Космос. Смерть. Роботы / Cosmic Chaos (2023) WEB-DLRip - Производство: Канада, США, Великобритания / Hewes Pictures
Жанр: фантастика, триллер
Режиссер: Иван Степанов, Нгуйен-Ан Нгуйен, Блэйк Саймон
Продюсер: Кэйтлин Моррисон, Нгуйен-Ан Нгуйен, Джинэнн Гуссен
Актеры: Кен Годмир, Даррен Хопвуд, Джинэнн Гуссен, Питер Синкода, Кэролайн Деверне, Кертис Берчхольт, Криста Чендли, Дэниэл Ван Томас, Пол Статман, Гленн Багвелл
Описание:
Альманах короткометражных фильмов. Бои в виртуальной реальности, выживание в постапокалиптической пустоши, советский космический корабль, подающий сигнал бедствия.
Возраст: 18+ (зрителям, достигшим 18 лет. запрещено для детей)
Релиз от: Rip by vitolinform
Продолжительность: 01:27:06
Качество видео: WEB-DLRip
Перевод: Дублированный (Leff Sound)
Язык озвучки: русский
Субтитры: отсутствуют
Видео: Xvid, 704х400, ~2013 Кbps
Аудио: AC3, 6 ch, 384 Кbps

MediaInfo:

General
Complete name : D:\Kosmos.Smert.Roboty.2023.WEB-DLRip.avi
Format : AVI
Format/Info : Audio Video Interleave
Format settings : WaveFormatEx
File size : 1.46 GiB
Duration : 1 h 27 min
Overall bit rate : 2 406 kb/s
Frame rate : 24.000 FPS
Movie name : Космос. Смерть. Роботы / Cosmic Chaos (2023) WEB-DLRip
Director : Иван Степанов / Ivan Stepanov , Нгуйен-Ан Нгуйен / Nguyen-Anh Nguyen, Блэйк Саймон / Blake Simon
Genre : фантастика, триллер
Writing application : VirtualDubMod 1.5.10.2 (build 2542/release)
Original source form/Name : Художественный фильм
Copyright : Канада, США, Великобритания / Hewes Pictures
Comment : Rip by vitolinform
Video
ID : 0
Format : MPEG-4 Visual
Format profile : Advanced Simple@L5
Format settings : BVOP1 / Custom Matrix
Format settings, BVOP : 1
Format settings, QPel : No
Format settings, GMC : No warppoints
Format settings, Matrix : Custom
Codec ID : XVID
Codec ID/Hint : XviD
Duration : 1 h 27 min
Bit rate : 2 013 kb/s
Width : 704 pixels
Height : 400 pixels
Display aspect ratio : 16:9
Frame rate : 24.000 FPS
Color space : YUV
Chroma subsampling : 4:2:0
Bit depth : 8 bits
Scan type : Progressive
Compression mode : Lossy
Bits/(Pixel*Frame) : 0.298
Stream size : 1.22 GiB (84%)
Writing library : XviD 74
Audio
ID : 1
Format : AC-3
Format/Info : Audio Coding 3
Commercial name : Dolby Digital
Codec ID : 2000
Duration : 1 h 27 min
Bit rate mode : Constant
Bit rate : 384 kb/s
Channel(s) : 6 channels
Channel layout : L R C LFE Ls Rs
Sampling rate : 48.0 kHz
Frame rate : 31.250 FPS (1536 SPF)
Compression mode : Lossy
Stream size : 239 MiB (16%)
Alignment : Split across interleaves
Interleave, duration : 42 ms (1.00 video frame)
Interleave, preload duration : 500 ms
Title : Russian (Dub, Leff Sound)
Service kind : Complete Main
Скриншоты:
Все одноименные релизы в КлубеВремя раздачи: как минимум до появления первых 3-5 скачавших, 24/7 (мультитрекерная раздача)
[Профиль] [ЛС]
Показать сообщения:    
Ответить на тему

Текущее время: 28-Фев 21:41

Часовой пояс: UTC ± 0



Вы не можете начинать темы
Вы не можете отвечать на сообщения
Вы не можете редактировать свои сообщения
Вы не можете удалять свои сообщения
Вы не можете голосовать в опросах
Вы не можете прикреплять файлы к сообщениям
Вы не можете скачивать файлы

[  Время выполнения: 0,029 сек  |  MySQL: 0,003 сек (9%) · 3 запр.  |  GZIP выкл  |  Память: 422,29 KB / 1,72 MB / 1,32 MB  |  Лимит: 16 16 15  ]