Под прикрытием / Inside Man (2023) WEB-DLRip [H.264] [MVO]

Ответить на тему
 
Автор Сообщение

admin ®

Пол: Не указан

Стаж: 5 месяца 1 день

Сообщений: 10110

Создавать темы 30-Янв-2024 17:33

[Цитировать]

Под прикрытием / Inside Man (2023) WEB-DLRip - Производство: США / Wild7 Films, 2B Films
Жанр: триллер, драма, криминал
Режиссер: Дэнни А. Абекейзер
Продюсер: Дэнни А. Абекейзер, Джон Брюэр, Густаво Наскрименто
Актеры: Эмиль Хирш, Люси Хейл, Джейк Каннавале, Эшли Грин, Дэнни А. Абекейзер, Бо Дитл, Винсент Лареска, Грег Финли, Кайл Стефански, Роберт Дави
Описание:
Бобби – это мужчина, который жил вполне обычной жизнью и работал в полиции. Судьба у него складывалась просто замечательно. У него была неплохая должность, любимая супруга, а большего для счастья и не нужно. Однако в какой-то момент он узнает о романе своей супруги. После этого он избивает мужчину. Случившееся серьезно повлияло на него. Он был понижен в должности и теперь должен заслужить прощение босса.
Релиз от: Rip by vitolinform
Продолжительность: 01:31:34
Качество видео: WEB-DLRip
Перевод: Многоголосый любительский (MUZOBOZ)
Язык озвучки: русский, английский
Субтитры: английские (full, SDH)
Видео: AVC/H.264, 1024x426, ~1855 Кbps
Аудио 1: AC3, 2 ch, 192 Kbps | Русский (MVO, MUZOBOZ)
Аудио 2: AC3, 6 ch, 448 Kbps | Английский

MediaInfo:

raw [info]: 1024x426p 1:1 @ 24000/1001 fps (cfr)
x264 [info]: using SAR=1/1
x264 [info]: using cpu capabilities: MMX2 SSE2Fast SSSE3 SSE4.2 AVX FMA3 BMI2 AVX2
x264 [info]: profile High, level 4.1, 4:2:0, 8-bit
x264 [info]: frame I:1191 Avg QP:14.74 size: 53684
x264 [info]: frame P:26766 Avg QP:15.86 size: 23642
x264 [info]: frame B:103775 Avg QP:18.26 size: 5564
x264 [info]: consecutive B-frames: 1.6% 1.8% 5.2% 21.9% 16.2% 38.1% 5.9% 5.3% 1.4% 1.0% 1.6%
x264 [info]: mb I I16..4: 7.2% 80.7% 12.1%
x264 [info]: mb P I16..4: 0.9% 14.2% 1.0% P16..4: 32.7% 29.0% 16.5% 0.0% 0.0% skip: 5.7%
x264 [info]: mb B I16..4: 0.0% 0.5% 0.0% B16..8: 37.9% 13.3% 3.7% direct: 3.9% skip:40.5% L0:44.7% L1:45.7% BI: 9.6%
x264 [info]: 8x8 transform intra:86.6% inter:57.7%
x264 [info]: coded y,uvDC,uvAC intra: 93.4% 84.5% 72.1% inter: 21.8% 18.7% 10.4%
x264 [info]: i16 v,h,dc,p: 33% 14% 16% 37%
x264 [info]: i8 v,h,dc,ddl,ddr,vr,hd,vl,hu: 11% 10% 13% 9% 11% 11% 11% 11% 12%
x264 [info]: i4 v,h,dc,ddl,ddr,vr,hd,vl,hu: 13% 9% 4% 9% 15% 15% 13% 11% 11%
x264 [info]: i8c dc,h,v,p: 49% 21% 17% 12%
x264 [info]: Weighted P-Frames: Y:2.8% UV:1.0%
x264 [info]: ref P L0: 47.3% 8.6% 18.2% 5.6% 5.3% 3.0% 3.2% 1.4% 1.6% 1.0% 1.2% 0.8% 1.0% 0.6% 0.8% 0.4%
x264 [info]: ref B L0: 69.6% 13.3% 5.9% 2.9% 1.9% 1.6% 1.2% 0.8% 0.6% 0.6% 0.4% 0.4% 0.4% 0.3% 0.1%
x264 [info]: ref B L1: 93.4% 6.6%
x264 [info]: kb/s:1855.16
x264 [total]: encoded 131732 frames, 10.40 fps, 1855.16 kb/s
===================================================================
General
Unique ID : 245808687227510847825450123580349227525 (0xB8ED07F8479C035A9F00E48F2A622205)
Complete name : D:\Pod.prikrytiem.2023.AMZN.WEB-DLRip.AVC.mkv
Format : Matroska
Format version : Version 4
File size : 1.60 GiB
Duration : 1 h 31 min
Overall bit rate : 2 497 kb/s
Frame rate : 23.976 FPS
Movie name : Inside Man (2023) WEB-DLRip AVC _ vitolinform
Encoded date : 2023-08-31 04:03:14 UTC
Writing application : mkvmerge v76.0 ('Celebration') 64-bit
Writing library : libebml v1.4.4 + libmatroska v1.7.1
Attachments : poster.jpg / log.log
Video
ID : 1
Format : AVC
Format/Info : Advanced Video Codec
Format profile : High@L4.1
Format settings : CABAC / 16 Ref Frames
Format settings, CABAC : Yes
Format settings, Reference frames : 16 frames
Codec ID : V_MPEG4/ISO/AVC
Duration : 1 h 31 min
Bit rate : 1 855 kb/s
Width : 1 024 pixels
Height : 426 pixels
Display aspect ratio : 2.40:1
Frame rate mode : Constant
Frame rate : 23.976 (24000/1001) FPS
Color space : YUV
Chroma subsampling : 4:2:0
Bit depth : 8 bits
Scan type : Progressive
Bits/(Pixel*Frame) : 0.177
Stream size : 1.19 GiB (74%)
Title : Под прикрытием / Inside Man (2023)
Writing library : x264 core 164 r3107 a8b68eb
Encoding settings : cabac=1 / ref=16 / deblock=1:-3:-3 / analyse=0x3:0x113 / me=umh / subme=10 / psy=1 / psy_rd=1.00:0.05 / mixed_ref=1 / me_range=32 / chroma_me=1 / trellis=2 / 8x8dct=1 / cqm=0 / deadzone=21,11 / fast_pskip=0 / chroma_qp_offset=-3 / threads=12 / lookahead_threads=5 / sliced_threads=0 / nr=0 / decimate=0 / interlaced=0 / bluray_compat=0 / constrained_intra=0 / bframes=10 / b_pyramid=2 / b_adapt=2 / b_bias=0 / direct=1 / weightb=1 / open_gop=0 / weightp=2 / keyint=240 / keyint_min=24 / scenecut=40 / intra_refresh=0 / rc_lookahead=40 / rc=crf / mbtree=0 / crf=17.6 / qcomp=0.60 / qpmin=0 / qpmax=69 / qpstep=4 / vbv_maxrate=50000 / vbv_bufsize=62500 / crf_max=0.0 / nal_hrd=none / filler=0 / ip_ratio=1.40 / pb_ratio=1.40 / aq=1:1.00
Language : English
Default : Yes
Forced : No
Color range : Limited
Color primaries : BT.709
Transfer characteristics : BT.709
Matrix coefficients : BT.709
Audio #1
ID : 2
Format : AC-3
Format/Info : Audio Coding 3
Commercial name : Dolby Digital
Codec ID : A_AC3
Duration : 1 h 31 min
Bit rate mode : Constant
Bit rate : 192 kb/s
Channel(s) : 2 channels
Channel layout : L R
Sampling rate : 48.0 kHz
Frame rate : 31.250 FPS (1536 SPF)
Compression mode : Lossy
Stream size : 126 MiB (8%)
Title : MVO | MUZOBOZ
Language : Russian
Service kind : Complete Main
Default : Yes
Forced : No
Audio #2
ID : 3
Format : AC-3
Format/Info : Audio Coding 3
Commercial name : Dolby Digital
Codec ID : A_AC3
Duration : 1 h 31 min
Bit rate mode : Constant
Bit rate : 448 kb/s
Channel(s) : 6 channels
Channel layout : L R C LFE Ls Rs
Sampling rate : 48.0 kHz
Frame rate : 31.250 FPS (1536 SPF)
Compression mode : Lossy
Stream size : 293 MiB (18%)
Title : English
Language : English
Service kind : Complete Main
Default : No
Forced : No
Text #1
ID : 4
Format : UTF-8
Codec ID : S_TEXT/UTF8
Codec ID/Info : UTF-8 Plain Text
Duration : 1 h 26 min
Bit rate : 80 b/s
Frame rate : 0.274 FPS
Count of elements : 1419
Stream size : 51.2 KiB (0%)
Title : Full
Language : English
Default : No
Forced : No
Text #2
ID : 5
Format : UTF-8
Codec ID : S_TEXT/UTF8
Codec ID/Info : UTF-8 Plain Text
Duration : 1 h 26 min
Bit rate : 83 b/s
Frame rate : 0.283 FPS
Count of elements : 1463
Stream size : 52.7 KiB (0%)
Title : SDH
Language : English
Default : No
Forced : No
Скриншоты:
Все одноименные релизы в КлубеВремя раздачи: как минимум до появления первых 3-5 скачавших, 24/7 (мультитрекерная раздача)
[Профиль] [ЛС]
Показать сообщения:    
Ответить на тему

Текущее время: 29-Фев 11:26

Часовой пояс: UTC ± 0



Вы не можете начинать темы
Вы не можете отвечать на сообщения
Вы не можете редактировать свои сообщения
Вы не можете удалять свои сообщения
Вы не можете голосовать в опросах
Вы не можете прикреплять файлы к сообщениям
Вы не можете скачивать файлы

[  Время выполнения: 0,038 сек  |  MySQL: 0,003 сек (8%) · 3 запр.  |  GZIP выкл  |  Память: 422,29 KB / 1,75 MB / 1,37 MB  |  Лимит: 9 10 11  ]