Примерное вождение / Bonne conduite (2023) WEB-DLRip [MVO] [AD]

Ответить на тему
 
Автор Сообщение

admin ®

Пол: Не указан

Стаж: 5 месяца 1 день

Сообщений: 10110

Создавать темы 30-Янв-2024 17:32

[Цитировать]

Примерное вождение / Bonne conduite (2023) WEB-DLRip- Производство: Франция / Waiting For CinemaAlicéléoTF1 Films Production
Жанр: комедия
Режиссер: Джонатан Барре
Актеры: Лор Калами, Чеки Карио, Грегуар Лудиг, David Marsais, Thomas Vandenberghe, Sixtine Aupetit, Olivier Marchal, David Salles, Rudy Cabrol, Alex Ramires
Описание:
У Паулин есть свой способ обеспечения безопасности дорожного движения: Днем она работает инструктором в центре по возврату прав, а ночью превращается в серийного убийцу охотящегося на тех же самых нарушителей, которых она пытается исправить днем. Однако ее двойная жизнь рушится, когда она пропускает одного нарушителя. Теперь ее тайны открыты, и она находится на грани разоблачения.
Продолжительность: 01:33:31
Качество видео: WEB-DLRip
Перевод: Многоголосый профессиональный (AlphaProject)
Язык озвучки:
Субтитры: Отсутствуют
Реклама: Присутствует баннер.
Видео: XviD, 720x304, ~1839 Kbps
Аудио: AC-3, 6 ch, 384 Kbps

MediaInfo:

Общее
Полное имя : D:\NNM\Примерное вождение\Bonne.conduite.2023.WEB-DLRip.avi
Формат : AVI
Формат/Информация : Audio Video Interleave
Размер файла : 1,46 Гбайт
Продолжительность : 1 ч. 33 м.
Общий поток : 2 232 Кбит/сек
Программа кодирования : VirtualDubMod 1.5.10.3 | www.virtualdub-fr.org || (build 2550/release)
Библиотека кодирования : VirtualDubMod build 2550/release
Видео
Идентификатор : 0
Формат : MPEG-4 Visual
Профиль формата : Advanced Simple@L5
Настройки формата : BVOP1 / Custom Matrix
Параметр BVOP формата : 1
Параметр QPel формата : Нет
Параметр GMC формата : Без точки перехода
Параметр матрицы формата : Выборочная
Идентификатор кодека : XVID
Идентификатор кодека/Подсказка : XviD
Продолжительность : 1 ч. 33 м.
Битрейт : 1 839 Кбит/сек
Ширина : 720 пикселей
Высота : 304 пикселя
Соотношение сторон : 2,35:1
Частота кадров : 23,976 (24000/1001) кадра/сек
Цветовое пространство : YUV
Субдискретизация насыщенности : 4:2:0
Битовая глубина : 8 бит
Тип развёртки : Прогрессивная
Метод сжатия : С потерями
Бит/(Пиксели*Кадры) : 0.350
Размер потока : 1,20 Гбайт (82%)
Библиотека кодирования : XviD 73
Аудио
Идентификатор : 1
Формат : AC-3
Формат/Информация : Audio Coding 3
Коммерческое название : Dolby Digital
Идентификатор кодека : 2000
Продолжительность : 1 ч. 33 м.
Вид битрейта : Постоянный
Битрейт : 384 Кбит/сек
Каналы : 6 каналов
Channel layout : L R C LFE Ls Rs
Частота : 48,0 КГц
Частота кадров : 31,250 кадров/сек (1536 SPF)
Метод сжатия : С потерями
Размер потока : 257 Мбайт (17%)
Выравнивание : Разделение по промежуткам
Продолжительность промежутка : 42 мс. (1,00 видеокадр)
Время предзагрузки промежутка : 500 мс.
Service kind : Complete Main
Скриншоты: Все одноименные релизы в КлубеВремя раздачи: 24/7 (до 10-ти скачавших)
[Профиль] [ЛС]
Показать сообщения:    
Ответить на тему

Текущее время: 29-Фев 12:32

Часовой пояс: UTC ± 0



Вы не можете начинать темы
Вы не можете отвечать на сообщения
Вы не можете редактировать свои сообщения
Вы не можете удалять свои сообщения
Вы не можете голосовать в опросах
Вы не можете прикреплять файлы к сообщениям
Вы не можете скачивать файлы

[  Время выполнения: 0,028 сек  |  MySQL: 0,003 сек (10%) · 3 запр.  |  GZIP выкл  |  Память: 422,29 KB / 1,72 MB / 1,32 MB  |  Лимит: 15 16 15  ]