Без обид / No Hard Feelings (2023) BDRip [H.264/1080p-LQ]

Ответить на тему
 
Автор Сообщение

admin ®

Пол: Не указан

Стаж: 5 месяца

Сообщений: 10110

Создавать темы 30-Янв-2024 17:32

[Цитировать]

Без обид / No Hard Feelings (2023) BDRip [H.264/1080p-LQ] - Производство: США / Excellent Cadaver, Odenkirk Provissiero Entertainment, Sony Pictures Entertainment (SPE)
Жанр: комедия, мелодрама
Режиссер: Джин Ступницки
Актеры: Дженнифер Лоуренс, Эндрю Барт Фельдман, Лаура Бенанти, Мэттью Бродерик, Натали Моралес, Скотт Макартур, Эбон Мосс-Бакрак, Кайл Муни, Хасан Минхадж, Jordan Mendoza
Описание:
Мэдди 32 года, она всю жизнь прожила в Монтоке — курортном местечке недалеко от Нью-Йорка. Богачи скупают тут недвижимость, налоги постоянно растут, а девушка пытается сохранить доставшийся в наследство от матери дом, поэтому оказывается по уши в долгах. Лишившись автомобиля и возможности таксовать, она в обмен на машину решает помочь богатеньким родителям, которые волнуются, что их 18-летнему сыну скоро в колледж, а он всё никак не вылезет из своей раковины. Задача Мэдди — лишить парня девственности, но сделать это оказывается не так-то просто.
Возраст: 18+ (зрителям, достигшим 18 лет. запрещено для детей)
Рейтинг MPAA: R (лицам до 17 лет обязательно присутствие взрослого)
Релиз от: LORDKILL
Продолжительность: 01:43:23
Качество видео: BDRip 1080p
Перевод: Дублированный (MovieDalen)
Язык озвучки: Русский
Субтитры: Русские (forced, full)
Видео: AVC/H.264, 1920x1038, ~5000 kbps
Аудио: AC3, 6 ch, 384 Kbps - Русский

MediaInfo:

General
Unique ID : 235328060757131862566174338773435878259 (0xB10A89308640729D6E43EEC2F6110B73)
Complete name : D:\РЕМУКС\Без обид (2023).mkv
Format : Matroska
Format version : Version 4
File size : 3.89 GiB
Duration : 1 h 43 min
Overall bit rate : 5 386 kb/s
Frame rate : 23.976 FPS
Movie name : Без обид / No Hard Feelings (2023) - #LORDKILL#
Encoded date : 2023-08-29 16:02:23 UTC
Writing application : mkvmerge v32.0.0 ('Astral Progressions') 64-bit
Writing library : libebml v1.3.7 + libmatroska v1.5.0
Cover : Yes
Attachments : cover.jpg / small_cover.jpg
Video
ID : 1
Format : AVC
Format/Info : Advanced Video Codec
Format profile : High@L4.1
Format settings : CABAC / 4 Ref Frames
Format settings, CABAC : Yes
Format settings, Reference : 4 frames
Codec ID : V_MPEG4/ISO/AVC
Duration : 1 h 43 min
Bit rate : 5 000 kb/s
Width : 1 920 pixels
Height : 1 038 pixels
Display aspect ratio : 1.85:1
Frame rate mode : Constant
Frame rate : 23.976 (24000/1001) FPS
Color space : YUV
Chroma subsampling : 4:2:0
Bit depth : 8 bits
Scan type : Progressive
Bits/(Pixel*Frame) : 0.105
Stream size : 3.61 GiB (93%)
Writing library : x264 core 164 r3100 ed0f7a6
Encoding settings : cabac=1 / ref=4 / deblock=1:-2:-2 / analyse=0x3:0x113 / me=umh / subme=10 / psy=1 / psy_rd=1.00:0.20 / mixed_ref=1 / me_range=32 / chroma_me=1 / trellis=2 / 8x8dct=1 / cqm=0 / deadzone=21,11 / fast_pskip=0 / chroma_qp_offset=-3 / threads=24 / lookahead_threads=6 / sliced_threads=0 / nr=0 / decimate=1 / interlaced=0 / bluray_compat=0 / constrained_intra=0 / bframes=10 / b_pyramid=2 / b_adapt=2 / b_bias=0 / direct=3 / weightb=1 / open_gop=0 / weightp=2 / keyint=240 / keyint_min=23 / scenecut=40 / intra_refresh=0 / rc=2pass / mbtree=0 / bitrate=5000 / ratetol=1.0 / qcomp=0.60 / qpmin=0 / qpmax=69 / qpstep=4 / cplxblur=20.0 / qblur=0.5 / ip_ratio=1.40 / pb_ratio=1.30 / aq=1:1.00
Default : Yes
Forced : No
Audio
ID : 2
Format : AC-3
Format/Info : Audio Coding 3
Commercial name : Dolby Digital
Codec ID : A_AC3
Duration : 1 h 43 min
Bit rate mode : Constant
Bit rate : 384 kb/s
Channel(s) : 6 channels
Channel layout : L R C LFE Ls Rs
Sampling rate : 48.0 kHz
Frame rate : 31.250 FPS (1536 SPF)
Compression mode : Lossy
Stream size : 284 MiB (7%)
Title : Дубляж (MovieDalen)
Language : Russian
Service kind : Complete Main
Default : Yes
Forced : Yes
Text #1
ID : 3
Format : UTF-8
Codec ID : S_TEXT/UTF8
Codec ID/Info : UTF-8 Plain Text
Duration : 1 h 26 min
Bit rate : 0 b/s
Frame rate : 0.003 FPS
Count of elements : 14
Stream size : 454 Bytes (0%)
Title : Forced
Language : Russian
Default : Yes
Forced : Yes
Text #2
ID : 4
Format : UTF-8
Codec ID : S_TEXT/UTF8
Codec ID/Info : UTF-8 Plain Text
Duration : 1 h 42 min
Bit rate : 96 b/s
Frame rate : 0.253 FPS
Count of elements : 1549
Stream size : 72.1 KiB (0%)
Title : Full
Language : Russian
Default : No
Forced : No
Menu
00:00:00.000 : en:Chapter 1
00:06:45.613 : en:Chapter 2
00:12:36.423 : en:Chapter 3
00:18:26.356 : en:Chapter 4
00:27:05.959 : en:Chapter 5
00:33:23.086 : en:Chapter 6
00:39:58.273 : en:Chapter 7
00:44:47.729 : en:Chapter 8
00:52:06.376 : en:Chapter 9
01:01:06.416 : en:Chapter 10
01:06:52.303 : en:Chapter 11
01:11:07.934 : en:Chapter 12
01:20:21.112 : en:Chapter 13
01:23:51.156 : en:Chapter 14
01:32:26.796 : en:Chapter 15
01:35:05.121 : en:Chapter 16
Скриншоты:
Все одноименные релизы в КлубеВремя раздачи: 24/7 (круглосуточно) (до появления первых 10 скачавших)
[Профиль] [ЛС]
Показать сообщения:    
Ответить на тему

Текущее время: 28-Фев 23:41

Часовой пояс: UTC ± 0



Вы не можете начинать темы
Вы не можете отвечать на сообщения
Вы не можете редактировать свои сообщения
Вы не можете удалять свои сообщения
Вы не можете голосовать в опросах
Вы не можете прикреплять файлы к сообщениям
Вы не можете скачивать файлы

[  Время выполнения: 0,027 сек  |  MySQL: 0,003 сек (11%) · 3 запр.  |  GZIP выкл  |  Память: 422,29 KB / 1,72 MB / 1,32 MB  |  Лимит: 8 9 9  ]