Рубеж выживания / Last Sentinel (2023) BDRip [H.264/1080p]

Ответить на тему
 
Автор Сообщение

admin ®

Пол: Не указан

Стаж: 5 месяца

Сообщений: 10110

Создавать темы 30-Янв-2024 17:31

[Цитировать]

Рубеж выживания / Last Sentinel (2023) BDRip [H.264/1080p]- Производство: Великобритания / Allfilm, Altitude Film Entertainment
Жанр: фантастика, триллер, драма
Режиссер: Танел Тоом
Продюсер: Йозеф Брандмайер
Актеры: Кейт Босворт, Люсьен Лависконт, Мартин МакКанн, Томас Кречман, Бен Пуллен, Карин Таммару, Ян Эрик Эренберг, Моника Туви
Описание: Четверо специалистов, обслуживающих сверхсекретный объект, уже давно работают посреди океана без связи с внешним миром. Когда ресурсы подходят к концу, а на контакт с ними никто не выходит, напряжение начинает возрастать. Приборы показывают приближение шторма, на горизонте появляется не подающий сигналов корабль. Команда начинает подозревать, что оказалась пешкой в чьей-то зловещей игре. Чтобы выбраться из ловушки и выжить, им придется разгадать тайну последнего рубежа.
Возраст: 18+ (зрителям, достигшим 18 лет. запрещено для детей)
Релиз от: Soft-Torrent - торрент игры программы фильмы книги скачать
Продолжительность: 01:57:09
Качество видео: BDRip 1080p
Перевод: Дублированный, Профессиональный многоголосый
Язык озвучки: Русский, Английский
Субтитры: Русские (2x Full) Английские (Full)
Видео: AVC/H.264, 1920x804, 8810 Kbps, 23.976 fps
Аудио 1: E-AC-3, 6 ch, 448 Kbps | Русский Dub Paragraph Media
Аудио 2: AC-3, 6 ch, 384 Kbps | Русский MVO Jaskier
Аудио 3: AC-3, 6 ch, 384 Kbps | Русский MVO TVShows
Аудио 4: E-AC-3, 6 ch, 1024 Kbps | Английский

Mediainfo:

General
Unique ID : 55588169499975998586536938614262869429 (0x29D1E45B619BAD374CA70A3EDEFC2DB5)
Complete name : /Volumes/Promise Pegasus/Last.Sentinel.2023.BDRip.1080p.pk.mkv
Format : Matroska
Format version : Version 4
File size : 9.05 GiB
Duration : 1 h 57 min
Overall bit rate : 11.1 Mb/s
Frame rate : 23.976 FPS
Movie name : Last Sentinel 2023 BDRip 1080p pk
Encoded date : 2023-08-25 23:16:41 UTC
Writing application : mkvmerge v79.0 ('Funeral Pyres') 64-bit
Writing library : libebml v1.4.4 + libmatroska v1.7.1
Cover : Yes
Attachments : Cover.png
Video
ID : 1
Format : AVC
Format/Info : Advanced Video Codec
Format profile : High@L4.1
Format settings : CABAC / 5 Ref Frames
Format settings, CABAC : Yes
Format settings, Reference frames : 5 frames
Codec ID : V_MPEG4/ISO/AVC
Duration : 1 h 57 min
Bit rate : 8 810 kb/s
Width : 1 920 pixels
Height : 804 pixels
Display aspect ratio : 2.40:1
Frame rate mode : Constant
Frame rate : 23.976 (24000/1001) FPS
Color space : YUV
Chroma subsampling : 4:2:0
Bit depth : 8 bits
Scan type : Progressive
Bits/(Pixel*Frame) : 0.238
Stream size : 7.21 GiB (80%)
Writing library : x264 core 164 r3107+58M encoded by pk5360114 from Russia
Encoding settings : cabac=1 / ref=5 / deblock=1:-2:-2 / analyse=0x3:0x133 / me=esa / subme=11 / psy=1 / fade_compensate=0.00 / psy_rd=1.02:0.00 / mixed_ref=1 / me_range=32 / chroma_me=1 / trellis=2 / 8x8dct=1 / cqm=0 / deadzone=21,11 / fast_pskip=0 / chroma_qp_offset=-2 / threads=25 / lookahead_threads=4 / sliced_threads=0 / nr=0 / decimate=0 / interlaced=0 / bluray_compat=0 / constrained_intra=0 / fgo=0 / bframes=9 / b_pyramid=2 / b_adapt=2 / b_bias=0 / direct=3 / weightb=1 / open_gop=0 / weightp=2 / keyint=240 / keyint_min=23 / scenecut=40 / intra_refresh=0 / rc_lookahead=60 / rc=crf / mbtree=0 / crf=17.7000 / qcomp=0.60 / qpmin=0:0:0 / qpmax=69:69:69 / qpstep=4 / vbv_maxrate=62500 / vbv_bufsize=78125 / crf_max=0.0 / nal_hrd=none / filler=0 / ip_ratio=1.30 / pb_ratio=1.20 / aq=3:0.80 / aq-sensitivity=10.00 / aq-factor=1.00:1.00:1.00:1.00 / aq2=0 / aq3=0
Language : English
Default : Yes
Forced : No
Color range : Limited
Color primaries : BT.709
Transfer characteristics : BT.709
Matrix coefficients : BT.709
Audio #1
ID : 2
Format : E-AC-3
Format/Info : Enhanced AC-3
Commercial name : Dolby Digital Plus
Codec ID : A_EAC3
Duration : 1 h 57 min
Bit rate mode : Constant
Bit rate : 448 kb/s
Channel(s) : 6 channels
Channel layout : L R C LFE Ls Rs
Sampling rate : 48.0 kHz
Frame rate : 31.250 FPS (1536 SPF)
Compression mode : Lossy
Stream size : 375 MiB (4%)
Title : Russian Dub Paragraph Media
Language : Russian
Service kind : Complete Main
Default : Yes
Forced : No
Audio #2
ID : 3
Format : AC-3
Format/Info : Audio Coding 3
Commercial name : Dolby Digital
Codec ID : A_AC3
Duration : 1 h 57 min
Bit rate mode : Constant
Bit rate : 384 kb/s
Channel(s) : 6 channels
Channel layout : L R C LFE Ls Rs
Sampling rate : 48.0 kHz
Frame rate : 31.250 FPS (1536 SPF)
Compression mode : Lossy
Stream size : 322 MiB (3%)
Title : Russian MVO Jaskier
Language : Russian
Service kind : Complete Main
Default : No
Forced : No
Audio #3
ID : 4
Format : AC-3
Format/Info : Audio Coding 3
Commercial name : Dolby Digital
Codec ID : A_AC3
Duration : 1 h 57 min
Bit rate mode : Constant
Bit rate : 384 kb/s
Channel(s) : 6 channels
Channel layout : L R C LFE Ls Rs
Sampling rate : 48.0 kHz
Frame rate : 31.250 FPS (1536 SPF)
Compression mode : Lossy
Stream size : 322 MiB (3%)
Title : Russian MVO TVShows
Language : Russian
Service kind : Complete Main
Default : No
Forced : No
Audio #4
ID : 5
Format : E-AC-3
Format/Info : Enhanced AC-3
Commercial name : Dolby Digital Plus
Codec ID : A_EAC3
Duration : 1 h 57 min
Bit rate mode : Constant
Bit rate : 1 024 kb/s
Channel(s) : 6 channels
Channel layout : L R C LFE Ls Rs
Sampling rate : 48.0 kHz
Frame rate : 31.250 FPS (1536 SPF)
Compression mode : Lossy
Stream size : 858 MiB (9%)
Title : English Original
Language : English
Service kind : Complete Main
Default : No
Forced : No
Text #1
ID : 6
Format : UTF-8
Codec ID : S_TEXT/UTF8
Codec ID/Info : UTF-8 Plain Text
Duration : 1 h 52 min
Bit rate : 47 b/s
Frame rate : 0.140 FPS
Count of elements : 943
Stream size : 39.2 KiB (0%)
Title : Russian full v.1
Language : Russian
Default : No
Forced : No
Text #2
ID : 7
Format : UTF-8
Codec ID : S_TEXT/UTF8
Codec ID/Info : UTF-8 Plain Text
Duration : 1 h 49 min
Bit rate : 48 b/s
Frame rate : 0.145 FPS
Count of elements : 953
Stream size : 38.4 KiB (0%)
Title : Russian full v.2
Language : Russian
Default : No
Forced : No
Text #3
ID : 8
Format : UTF-8
Codec ID : S_TEXT/UTF8
Codec ID/Info : UTF-8 Plain Text
Duration : 1 h 49 min
Bit rate : 28 b/s
Frame rate : 0.141 FPS
Count of elements : 925
Stream size : 22.5 KiB (0%)
Title : English full
Language : English
Default : No
Forced : No
Menu
00:00:00.000 : en:Chapter 1
00:09:58.639 : en:Chapter 2
00:19:54.985 : en:Chapter 3
00:27:54.214 : en:Chapter 4
00:39:11.432 : en:Chapter 5
00:50:14.678 : en:Chapter 6
01:00:18.281 : en:Chapter 7
01:09:49.852 : en:Chapter 8
01:19:22.674 : en:Chapter 9
01:29:22.231 : en:Chapter 10
01:39:39.723 : en:Chapter 11
01:48:12.652 : en:Chapter 12

x264 log:

x264 [info]: frame I:1274  Avg QP:13.19  size:170353
x264 [info]: frame P:34219 Avg QP:14.64 size: 74391
x264 [info]: frame B:133037 Avg QP:15.74 size: 37421
x264 [info]: consecutive B-frames: 1.4% 1.4% 12.1% 7.6% 14.3% 52.3% 6.6% 1.2% 1.6% 1.5%
x264 [info]: kb/s:8810.19

Скриншоты сравнения






Скриншоты:
Все одноименные релизы в КлубеВремя раздачи: 24/7 (круглосуточно) (до появления первых 3-5 скачавших)
[Профиль] [ЛС]
Показать сообщения:    
Ответить на тему

Текущее время: 28-Фев 23:29

Часовой пояс: UTC ± 0



Вы не можете начинать темы
Вы не можете отвечать на сообщения
Вы не можете редактировать свои сообщения
Вы не можете удалять свои сообщения
Вы не можете голосовать в опросах
Вы не можете прикреплять файлы к сообщениям
Вы не можете скачивать файлы

[  Время выполнения: 0,044 сек  |  MySQL: 0,004 сек (8%) · 3 запр.  |  GZIP выкл  |  Память: 422,29 KB / 1,76 MB / 1,38 MB  |  Лимит: 9 9 10  ]