Снэг Глава первая / Snag Chapter One (2023) WEB-DL [H.264/1080p] [DVO]

Ответить на тему
 
Автор Сообщение

admin ®

Пол: Не указан

Стаж: 5 месяца 1 день

Сообщений: 10110

Создавать темы 30-Янв-2024 17:31

[Цитировать]

Снэг Глава первая / Snag Chapter One (2023) WEB-DL [H.264/1080p]- Производство: США / BCD Travel
Жанр: боевик, триллер, детектив
Режиссер: Бен Милликен
Актеры: Бен Милликен, София Кастро, Джонни Бошан, Ана Ортис, Жанетт Агиляр Харрис, К.Дж. Перри, Хайме Камиль, Умберто Кастро, Луис Де Ла Коста, Брэндон Хадсон
Описание:
Тощий и изворотливый австралиец не от хорошей жизни становится перевозчиком наркотиков и, попав в Мексику, попадает под прицел влиятельной и жестокой Виктории. Та мечтает его извести, но парень живуч как таракан, и к тому же влюблён в её дочь Валентину, которая отвечает симпатичному "гринго" взаимностью. Но счастье влюблённых длится недолго - Валентина погибает у него на руках, и парень пытается вести тихую жизнь в отдалённом городке, пока однажды к нему не приходит старый знакомый с любопытными новостями.
Продолжительность: 01:27:05
Качество видео: WEB-DL (1080p)
Перевод: Профессиональный двухголосый (ViruseProject)
Язык озвучки: Русский, английский
Субтитры: Русские, английские
Видео: AVC/H.264, 1920x800, ~7175 Kbps
Аудио #1: AC3, 2 ch, 192 Kbps - Русский
Аудио #2: E-AC3, 6 ch, 640 Kbps - Английский

MediaInfo:

Общее
Уникальный идентификатор : 250779107612601121934124820047090469840 (0xBCAA4C9D77FD0AAFA5F3A2973124CBD0)
Полное имя : D:\NNM\Снэг Глава первая\Snag.Chapter.One.2023.1080p.WEB-DL.ExKinoRay.mkv
Формат : Matroska
Версия формата : Version 4
Размер файла : 4,97 Гбайт
Продолжительность : 1 ч. 27 м.
Общий поток : 8 169 Кбит/сек
Дата кодирования : UTC 2023-08-30 00:31:52
Программа кодирования : mkvmerge v6.9.1 ('Blue Panther') 32bit built on Apr 18 2014 18:15:44
Библиотека кодирования : libebml v1.3.0 + libmatroska v1.4.1
Видео
Идентификатор : 1
Формат : AVC
Формат/Информация : Advanced Video Codec
Профиль формата : High@L4
Настройки формата : CABAC / 4 Ref Frames
Параметр CABAC формата : Да
Параметр RefFrames формата : 4 кадра
Идентификатор кодека : V_MPEG4/ISO/AVC
Продолжительность : 1 ч. 27 м.
Вид битрейта : Постоянный
Битрейт : 7 175 Кбит/сек
Номинальный битрейт : 10 000 Кбит/сек
Ширина : 1 920 пикселей
Высота : 800 пикселей
Соотношение сторон : 2,40:1
Режим частоты кадров : Постоянный
Частота кадров : 24,000 кадра/сек
Цветовое пространство : YUV
Субдискретизация насыщенности : 4:2:0
Битовая глубина : 8 бит
Тип развёртки : Прогрессивная
Бит/(Пиксели*Кадры) : 0.195
Размер потока : 4,36 Гбайт (88%)
Язык : English
Default : Да
Forced : Нет
Цветовой диапазон : Limited
Основные цвета : BT.709
Характеристики трансфера : BT.709
Коэффициенты матрицы : BT.709
Аудио #1
Идентификатор : 2
Формат : AC-3
Формат/Информация : Audio Coding 3
Коммерческое название : Dolby Digital
Идентификатор кодека : A_AC3
Продолжительность : 1 ч. 27 м.
Вид битрейта : Постоянный
Битрейт : 192 Кбит/сек
Каналы : 2 канала
Channel layout : L R
Частота : 48,0 КГц
Частота кадров : 31,250 кадров/сек (1536 SPF)
Метод сжатия : С потерями
Размер потока : 120 Мбайт (2%)
Заголовок : ViruseProject
Язык : Russian
Service kind : Complete Main
Default : Да
Forced : Нет
Аудио #2
Идентификатор : 3
Формат : E-AC-3
Формат/Информация : Enhanced AC-3
Коммерческое название : Dolby Digital Plus
Идентификатор кодека : A_EAC3
Продолжительность : 1 ч. 27 м.
Вид битрейта : Постоянный
Битрейт : 640 Кбит/сек
Каналы : 6 каналов
Channel layout : L R C LFE Ls Rs
Частота : 48,0 КГц
Частота кадров : 31,250 кадров/сек (1536 SPF)
Метод сжатия : С потерями
Размер потока : 399 Мбайт (8%)
Заголовок : Original
Язык : English
Service kind : Complete Main
Default : Нет
Forced : Нет
Текст #1
Идентификатор : 4
Формат : UTF-8
Идентификатор кодека : S_TEXT/UTF8
Идентификатор кодека/Информация : UTF-8 Plain Text
Заголовок : Full
Язык : Russian
Default : Нет
Forced : Нет
Текст #2
Идентификатор : 5
Формат : UTF-8
Идентификатор кодека : S_TEXT/UTF8
Идентификатор кодека/Информация : UTF-8 Plain Text
Заголовок : SDH
Язык : English
Default : Нет
Forced : Нет
Скриншоты: Все одноименные релизы в КлубеВремя раздачи: 24/7 (до 10-ти скачавших)
[Профиль] [ЛС]
Показать сообщения:    
Ответить на тему

Текущее время: 29-Фев 12:02

Часовой пояс: UTC ± 0



Вы не можете начинать темы
Вы не можете отвечать на сообщения
Вы не можете редактировать свои сообщения
Вы не можете удалять свои сообщения
Вы не можете голосовать в опросах
Вы не можете прикреплять файлы к сообщениям
Вы не можете скачивать файлы

[  Время выполнения: 0,037 сек  |  MySQL: 0,003 сек (8%) · 3 запр.  |  GZIP выкл  |  Память: 422,29 KB / 1,74 MB / 1,36 MB  |  Лимит: 8 7 9  ]