Мег 2: Бездна / Meg 2: The Trench (2023) WEB-DL [H.265/2160p] [4K, SDR, 10-bit] [MVO]

Ответить на тему
 
Автор Сообщение

admin ®

Пол: Не указан

Стаж: 5 месяца 1 день

Сообщений: 10110

Создавать темы 30-Янв-2024 17:30

[Цитировать]

Мег 2: Бездна / Meg 2: The Trench (2023) WEB-DL [H.265/2160p] - Производство: США, Китай / Apelles Entertainment, China Media Capital, Flagship Entertainment Group
Жанр: ужасы, фантастика, боевик
Режиссер: Бен Уитли
Актеры: Джейсон Стэйтем, Джеки У, Клифф Кёртис, Шуя Софиа Цай, Пейдж Кеннеди, Серхио Перис-Менчета, Скайлер Сэмюэлс, Мелиссанти Махут, Вупи Ван Раам, Киран Соня Савар
Описание:
Исследовательская группа погружается в самые глубокие впадины океана с целью выявления залежей полезных ископаемых. Их путешествие превращается в хаос, когда они сталкиваются с целой группой колоссальных мегаладонов. И теперь, чтобы выжить, им придётся во всём превзойти этих безжалостных хищников.
Рейтинг MPAA: PG-13 (детям до 13 лет просмотр нежелателен)
Релиз от: arxivariys
Продолжительность: 01:55:37
Качество видео: WEB-DL
Перевод: Многоголосый профессиональный (TVShows)
Язык озвучки: русский, английский
Субтитры: русские, английские (forced, full, SDH)
Видео: HEVC/H.265, 3840x2160, ~24,3 Mbps
Аудио 1: AC3, 6 ch, 384 Kbps, русский
Аудио 2: E-AC3 JOC, 6 ch, 768 Kbps, английский

MediaInfo:


General
Unique ID : 329402554348266183456374679729808928676 (0xF7D09FD348DACFBE59CE4996204CEFA4)
Complete name : Мег 2 Бездна.2023.WEB-DL.2160p.SDR.mkv
Format : Matroska
Format version : Version 4
File size : 20.5 GiB
Duration : 1 h 55 min
Overall bit rate : 25.4 Mb/s
Frame rate : 23.976 FPS
Encoded date : 2023-08-27 20:16:20 UTC
Writing application : mkvmerge v79.0 ('Funeral Pyres') 64-bit
Writing library : libebml v1.4.4 + libmatroska v1.7.1
Attachments : poster.jpg
Video
ID : 1
Format : HEVC
Format/Info : High Efficiency Video Coding
Format profile : Main 10@L5@High
Codec ID : V_MPEGH/ISO/HEVC
Duration : 1 h 55 min
Bit rate : 24.3 Mb/s
Width : 3 840 pixels
Height : 2 160 pixels
Display aspect ratio : 16:9
Frame rate mode : Constant
Frame rate : 23.976 (24000/1001) FPS
Color space : YUV
Chroma subsampling : 4:2:0 (Type 2)
Bit depth : 10 bits
Bits/(Pixel*Frame) : 0.122
Stream size : 19.6 GiB (95%)
Language : English
Default : Yes
Forced : No
Color range : Limited
Color primaries : BT.709
Transfer characteristics : BT.709
Matrix coefficients : BT.709
Audio #1
ID : 2
Format : AC-3
Format/Info : Audio Coding 3
Commercial name : Dolby Digital
Codec ID : A_AC3
Duration : 1 h 55 min
Bit rate mode : Constant
Bit rate : 384 kb/s
Channel(s) : 6 channels
Channel layout : L R C LFE Ls Rs
Sampling rate : 48.0 kHz
Frame rate : 31.250 FPS (1536 SPF)
Compression mode : Lossy
Stream size : 318 MiB (2%)
Title : MVO, TVShows
Language : Russian
Service kind : Complete Main
Default : Yes
Forced : No
Audio #2
ID : 3
Format : E-AC-3 JOC
Format/Info : Enhanced AC-3 with Joint Object Coding
Commercial name : Dolby Digital Plus with Dolby Atmos
Codec ID : A_EAC3
Duration : 1 h 55 min
Bit rate mode : Constant
Bit rate : 768 kb/s
Channel(s) : 6 channels
Channel layout : L R C LFE Ls Rs
Sampling rate : 48.0 kHz
Frame rate : 31.250 FPS (1536 SPF)
Compression mode : Lossy
Stream size : 635 MiB (3%)
Language : English
Service kind : Complete Main
Default : No
Forced : No
Complexity index : 16
Number of dynamic objects : 15
Bed channel count : 1 channel
Bed channel configuration : LFE
Text #1
ID : 4
Format : UTF-8
Codec ID : S_TEXT/UTF8
Codec ID/Info : UTF-8 Plain Text
Duration : 1 h 45 min
Bit rate : 90 b/s
Frame rate : 0.235 FPS
Count of elements : 1482
Stream size : 69.8 KiB (0%)
Language : Russian
Default : No
Forced : No
Text #2
ID : 5
Format : UTF-8
Codec ID : S_TEXT/UTF8
Codec ID/Info : UTF-8 Plain Text
Duration : 1 h 35 min
Bit rate : 3 b/s
Frame rate : 0.016 FPS
Count of elements : 90
Stream size : 2.71 KiB (0%)
Title : forced
Language : English
Default : No
Forced : No
Text #3
ID : 6
Format : UTF-8
Codec ID : S_TEXT/UTF8
Codec ID/Info : UTF-8 Plain Text
Duration : 1 h 48 min
Bit rate : 52 b/s
Frame rate : 0.252 FPS
Count of elements : 1639
Stream size : 41.8 KiB (0%)
Title : full
Language : English
Default : No
Forced : No
Text #4
ID : 7
Format : UTF-8
Codec ID : S_TEXT/UTF8
Codec ID/Info : UTF-8 Plain Text
Duration : 1 h 50 min
Bit rate : 67 b/s
Frame rate : 0.310 FPS
Count of elements : 2057
Stream size : 54.9 KiB (0%)
Title : SDH
Language : English
Default : No
Forced : No
Menu
00:00:00.000 : en:Chapter 01
00:08:43.690 : en:Chapter 02
00:18:01.498 : en:Chapter 03
00:27:15.427 : en:Chapter 04
00:36:33.151 : en:Chapter 05
00:44:02.517 : en:Chapter 06
00:51:22.457 : en:Chapter 07
00:58:47.402 : en:Chapter 08
01:08:29.275 : en:Chapter 09
01:17:18.722 : en:Chapter 10
01:26:18.595 : en:Chapter 11
01:33:36.366 : en:Chapter 12
01:39:35.308 : en:Chapter 13
01:46:06.783 : en:Chapter 14
Скриншоты:
Все одноименные релизы в КлубеВремя раздачи: 24/7 (мультитрекер)
[Профиль] [ЛС]
Показать сообщения:    
Ответить на тему

Текущее время: 29-Фев 11:12

Часовой пояс: UTC ± 0



Вы не можете начинать темы
Вы не можете отвечать на сообщения
Вы не можете редактировать свои сообщения
Вы не можете удалять свои сообщения
Вы не можете голосовать в опросах
Вы не можете прикреплять файлы к сообщениям
Вы не можете скачивать файлы

[  Время выполнения: 0,025 сек  |  MySQL: 0,003 сек (12%) · 3 запр.  |  GZIP выкл  |  Память: 422,29 KB / 1,72 MB / 1,32 MB  |  Лимит: 11 11 11  ]