Мег 2: Бездна / Meg 2: The Trench (2023) WEB-DL [H.264/1080p] [MVO]

Ответить на тему
 
Автор Сообщение

admin ®

Пол: Не указан

Стаж: 7 месяца 24 дня

Сообщений: 11520

Создавать темы 30-Янв-2024 17:30

[Цитировать]

Мег 2: Бездна / Meg 2: The Trench (2023) WEB-DL [H.264/1080p] - Производство: США, Китай / Apelles Entertainment, China Media Capital, Flagship Entertainment Group
Жанр: ужасы, фантастика, боевик
Режиссер: Бен Уитли
Актеры: Джейсон Стэйтем, Джеки У, Клифф Кёртис, Шуя Софиа Цай, Пейдж Кеннеди, Серхио Перис-Менчета, Скайлер Сэмюэлс, Мелиссанти Махут, Вупи Ван Раам, Киран Соня Савар
Описание:
Исследовательская группа погружается в самые глубокие впадины океана с целью выявления залежей полезных ископаемых. Их путешествие превращается в хаос, когда они сталкиваются с целой группой колоссальных мегаладонов. И теперь, чтобы выжить, им придётся во всём превзойти этих безжалостных хищников.
Рейтинг MPAA: PG-13 (детям до 13 лет просмотр нежелателен)
Продолжительность: 01:55:37
Качество видео: WEB-DL
Перевод: Многоголосый профессиональный (TVShows)
Язык озвучки: русский, английский
Субтитры: русские, английские (SDH, forced)
Видео: AVC/H.264, 1920x800, ~7343 Kbps
Аудио 1: AC3, 6 ch, 384 Kbps - Русский
Аудио 2: E-AC3, 6 ch, 640 Kbps - Английский

MediaInfo:

Общее
Уникальный идентификатор : 270146921939898445671122426985615549423 (0xCB3C6796259825CA9129BBD391C563EF)
Полное имя : \Meg.2.The.Trench.2023.1080p.AMZN.WEB-DL.DDP5.1.H.264.-EniaHD.mkv
Формат : Matroska
Версия формата : Version 4
Размер файла : 6,76 Гбайт
Продолжительность : 1 ч. 55 м.
Общий поток : 8 370 Кбит/сек
Частота кадров : 23,976 кадра/сек
Название фильма : Meg 2: The Trench (2023) - EniaHD
Программа кодирования : mkvmerge v57.0.0 ('Till The End') 64-bit
Библиотека кодирования : libebml v1.4.2 + libmatroska v1.6.4
Видео
Идентификатор : 1
Формат : AVC
Формат/Информация : Advanced Video Codec
Профиль формата : High@L4
Настройки формата : CABAC / 4 Ref Frames
Параметр CABAC формата : Да
Параметр RefFrames формата : 4 кадра
Идентификатор кодека : V_MPEG4/ISO/AVC
Продолжительность : 1 ч. 55 м.
Вид битрейта : Постоянный
Битрейт : 7 343 Кбит/сек
Номинальный битрейт : 10 000 Кбит/сек
Ширина : 1 920 пикселей
Высота : 800 пикселей
Соотношение сторон : 2,40:1
Режим частоты кадров : Постоянный
Частота кадров : 23,976 (24000/1001) кадра/сек
Цветовое пространство : YUV
Субдискретизация насыщенности : 4:2:0
Битовая глубина : 8 бит
Тип развёртки : Прогрессивная
Бит/(Пиксели*Кадры) : 0.199
Размер потока : 5,93 Гбайт (88%)
Язык : English (US)
Default : Да
Forced : Нет
Цветовой диапазон : Limited
Основные цвета : BT.709
Характеристики трансфера : BT.709
Коэффициенты матрицы : BT.709
Аудио #1
Идентификатор : 2
Формат : AC-3
Формат/Информация : Audio Coding 3
Коммерческое название : Dolby Digital
Идентификатор кодека : A_AC3
Продолжительность : 1 ч. 55 м.
Вид битрейта : Постоянный
Битрейт : 384 Кбит/сек
Каналы : 6 каналов
Channel layout : L R C LFE Ls Rs
Частота : 48,0 КГц
Частота кадров : 31,250 кадров/сек (1536 SPF)
Метод сжатия : С потерями
Размер потока : 318 Мбайт (5%)
Заголовок : TVShows
Язык : Russian
Service kind : Complete Main
Default : Да
Forced : Нет
Аудио #2
Идентификатор : 3
Формат : E-AC-3
Формат/Информация : Enhanced AC-3
Коммерческое название : Dolby Digital Plus
Идентификатор кодека : A_EAC3
Продолжительность : 1 ч. 55 м.
Вид битрейта : Постоянный
Битрейт : 640 Кбит/сек
Каналы : 6 каналов
Channel layout : L R C LFE Ls Rs
Частота : 48,0 КГц
Частота кадров : 31,250 кадров/сек (1536 SPF)
Метод сжатия : С потерями
Размер потока : 529 Мбайт (8%)
Язык : English (US)
Service kind : Complete Main
Default : Нет
Forced : Нет
Текст #1
Идентификатор : 4
Формат : UTF-8
Идентификатор кодека : S_TEXT/UTF8
Идентификатор кодека/Информация : UTF-8 Plain Text
Продолжительность : 1 ч. 45 м.
Битрейт : 90 бит/сек
Частота кадров : 0,235 кадр/сек
Count of elements : 1482
Размер потока : 69,9 Кбайт (0%)
Язык : Russian
Default : Нет
Forced : Нет
Текст #2
Идентификатор : 5
Формат : UTF-8
Идентификатор кодека : S_TEXT/UTF8
Идентификатор кодека/Информация : UTF-8 Plain Text
Продолжительность : 1 ч. 50 м.
Битрейт : 72 бит/сек
Частота кадров : 0,307 кадр/сек
Count of elements : 2038
Размер потока : 58,8 Кбайт (0%)
Заголовок : SDH
Язык : English
Default : Нет
Forced : Нет
Текст #3
Идентификатор : 6
Формат : UTF-8
Идентификатор кодека : S_TEXT/UTF8
Идентификатор кодека/Информация : UTF-8 Plain Text
Продолжительность : 1 ч. 35 м.
Битрейт : 3 бит/сек
Частота кадров : 0,015 кадр/сек
Count of elements : 88
Размер потока : 2,72 Кбайт (0%)
Заголовок : Forced
Язык : English (US)
Default : Нет
Forced : Нет
Скриншоты:
Все одноименные релизы в КлубеВремя раздачи: 24/7 (мультитрекер)
[Профиль] [ЛС]
Показать сообщения:    
Ответить на тему

Текущее время: 23-Май 05:59

Часовой пояс: UTC ± 0



Вы не можете начинать темы
Вы не можете отвечать на сообщения
Вы не можете редактировать свои сообщения
Вы не можете удалять свои сообщения
Вы не можете голосовать в опросах
Вы не можете прикреплять файлы к сообщениям
Вы не можете скачивать файлы

[  Время выполнения: 0,040 сек  |  MySQL: 0,002 сек (6%) · 3 запр.  |  GZIP выкл  |  Память: 422,29 KB / 1,75 MB / 1,37 MB  |  Лимит: 14 14 15  ]