Мег 2: Бездна / Meg 2: The Trench (2023) WEB-DLRip [H.264] [MVO]

Ответить на тему
 
Автор Сообщение

admin ®

Пол: Не указан

Стаж: 5 месяца 1 день

Сообщений: 10110

Создавать темы 30-Янв-2024 17:30

[Цитировать]

Мег 2: Бездна / Meg 2: The Trench (2023) WEB-DLRip - Производство: США, Китай / Apelles Entertainment, China Media Capital, Flagship Entertainment Group
Жанр: ужасы, фантастика, боевик
Режиссер: Бен Уитли
Продюсер: Кейт Адамс, Кеннет Этчити, Белль Эйвери, ...
Актеры: Джейсон Стэйтем, Джеки У, Клифф Кёртис, Шуя Софиа Цай, Пейдж Кеннеди, Серхио Перис-Менчета, Скайлер Сэмюэлс, Мелиссанти Махут, Вупи Ван Раам, Киран Соня Савар
Описание:
Водолаз-спасатель Джонас отправляется во впадину, где обитает очередная акула-мегалодон. Одолеть суперхищницу и её подводных приспешников будет совсем непросто.
Рейтинг MPAA: PG-13 (детям до 13 лет просмотр нежелателен)
Релиз от: Rip by vitolinform
Продолжительность: 01:55:37
Качество видео: WEB-DLRip
Перевод: Многоголосый профессиональный (TVShows)
Язык озвучки: русский, английский
Субтитры: русские, английские (forced, full, SDH), французские
Видео: AVC/H.264, 1024x426, ~2150 Kbps
Аудио 1: AC3, 6 ch, 384 Кbps | Русский (МVO, TVShows)
Аудио 2: AC3, 6 ch, 448 Кbps | Английский

MediaInfo:

raw [info]: 1024x426p 1:1 @ 24000/1001 fps (cfr)
x264 [info]: using SAR=1/1
x264 [info]: using cpu capabilities: MMX2 SSE2Fast SSSE3 SSE4.2 AVX FMA3 BMI2 AVX2
x264 [info]: profile High, level 4.1, 4:2:0, 8-bit
x264 [info]: frame I:1409 Avg QP:15.25 size: 50291
x264 [info]: frame P:45523 Avg QP:16.82 size: 21497
x264 [info]: frame B:119408 Avg QP:19.52 size: 6827
x264 [info]: consecutive B-frames: 4.2% 5.2% 13.2% 46.3% 12.3% 14.8% 1.9% 1.2% 0.4% 0.2% 0.4%
x264 [info]: mb I I16..4: 8.7% 72.2% 19.1%
x264 [info]: mb P I16..4: 2.7% 19.6% 2.5% P16..4: 32.6% 23.2% 11.3% 0.0% 0.0% skip: 8.1%
x264 [info]: mb B I16..4: 0.3% 1.9% 0.3% B16..8: 38.2% 13.6% 3.4% direct: 6.2% skip:36.1% L0:42.3% L1:44.6% BI:13.2%
x264 [info]: 8x8 transform intra:77.9% inter:63.9%
x264 [info]: coded y,uvDC,uvAC intra: 82.6% 77.2% 57.2% inter: 24.2% 22.8% 11.3%
x264 [info]: i16 v,h,dc,p: 35% 15% 9% 41%
x264 [info]: i8 v,h,dc,ddl,ddr,vr,hd,vl,hu: 10% 13% 10% 8% 11% 10% 13% 10% 15%
x264 [info]: i4 v,h,dc,ddl,ddr,vr,hd,vl,hu: 11% 11% 5% 8% 14% 12% 14% 10% 14%
x264 [info]: i8c dc,h,v,p: 44% 27% 16% 13%
x264 [info]: Weighted P-Frames: Y:4.4% UV:2.8%
x264 [info]: ref P L0: 54.4% 10.4% 14.0% 5.4% 3.8% 2.7% 2.2% 1.3% 1.2% 1.0% 0.8% 0.7% 0.6% 0.6% 0.5% 0.4%
x264 [info]: ref B L0: 78.3% 9.7% 4.3% 2.0% 1.4% 1.0% 0.8% 0.5% 0.4% 0.4% 0.3% 0.3% 0.2% 0.2% 0.1%
x264 [info]: ref B L1: 95.4% 4.6%
x264 [info]: kb/s:2150.11
x264 [total]: encoded 166340 frames, 8.08 fps, 2150.11 kb/s
=======================================================================
General
Unique ID : 95562563407434167557481928549827499145 (0x47E4AE2465B2F13B9CF2712C6C8A5489)
Complete name : D:\Meg.2.Bezdna.2023.AMZN.WEB-DLRip.AVC.mkv
Format : Matroska
Format version : Version 4
File size : 2.41 GiB
Duration : 1 h 55 min
Overall bit rate : 2 985 kb/s
Frame rate : 23.976 FPS
Movie name : Meg 2: The Trench (2023) WEB-DLRip AVC _ vitolinform
Encoded date : 2023-08-28 01:02:25 UTC
Writing application : mkvmerge v76.0 ('Celebration') 64-bit
Writing library : libebml v1.4.4 + libmatroska v1.7.1
Attachments : poster.jpg / log.log
Video
ID : 1
Format : AVC
Format/Info : Advanced Video Codec
Format profile : High@L4.1
Format settings : CABAC / 16 Ref Frames
Format settings, CABAC : Yes
Format settings, Reference frames : 16 frames
Codec ID : V_MPEG4/ISO/AVC
Duration : 1 h 55 min
Bit rate : 2 150 kb/s
Width : 1 024 pixels
Height : 426 pixels
Display aspect ratio : 2.40:1
Frame rate mode : Constant
Frame rate : 23.976 (24000/1001) FPS
Color space : YUV
Chroma subsampling : 4:2:0
Bit depth : 8 bits
Scan type : Progressive
Bits/(Pixel*Frame) : 0.206
Stream size : 1.74 GiB (72%)
Title : Мег 2: Бездна / Meg 2: The Trench (2023)
Writing library : x264 core 164 r3107 a8b68eb
Encoding settings : cabac=1 / ref=16 / deblock=1:-3:-3 / analyse=0x3:0x113 / me=umh / subme=10 / psy=1 / psy_rd=1.00:0.05 / mixed_ref=1 / me_range=32 / chroma_me=1 / trellis=2 / 8x8dct=1 / cqm=0 / deadzone=21,11 / fast_pskip=0 / chroma_qp_offset=-3 / threads=12 / lookahead_threads=5 / sliced_threads=0 / nr=0 / decimate=0 / interlaced=0 / bluray_compat=0 / constrained_intra=0 / bframes=10 / b_pyramid=2 / b_adapt=2 / b_bias=0 / direct=1 / weightb=1 / open_gop=0 / weightp=2 / keyint=240 / keyint_min=24 / scenecut=40 / intra_refresh=0 / rc_lookahead=40 / rc=crf / mbtree=0 / crf=18.0 / qcomp=0.60 / qpmin=0 / qpmax=69 / qpstep=4 / vbv_maxrate=50000 / vbv_bufsize=62500 / crf_max=0.0 / nal_hrd=none / filler=0 / ip_ratio=1.40 / pb_ratio=1.40 / aq=1:1.00
Language : English
Default : Yes
Forced : No
Color range : Limited
Color primaries : BT.709
Transfer characteristics : BT.709
Matrix coefficients : BT.709
Audio #1
ID : 2
Format : AC-3
Format/Info : Audio Coding 3
Commercial name : Dolby Digital
Codec ID : A_AC3
Duration : 1 h 55 min
Bit rate mode : Constant
Bit rate : 384 kb/s
Channel(s) : 6 channels
Channel layout : L R C LFE Ls Rs
Sampling rate : 48.0 kHz
Frame rate : 31.250 FPS (1536 SPF)
Compression mode : Lossy
Stream size : 318 MiB (13%)
Title : MVO | TVShows
Language : Russian
Service kind : Complete Main
Default : Yes
Forced : No
Audio #2
ID : 3
Format : AC-3
Format/Info : Audio Coding 3
Commercial name : Dolby Digital
Codec ID : A_AC3
Duration : 1 h 55 min
Bit rate mode : Constant
Bit rate : 448 kb/s
Channel(s) : 6 channels
Channel layout : L R C LFE Ls Rs
Sampling rate : 48.0 kHz
Frame rate : 31.250 FPS (1536 SPF)
Compression mode : Lossy
Stream size : 371 MiB (15%)
Title : English
Language : English
Service kind : Complete Main
Default : No
Forced : No
Text #1
ID : 4
Format : UTF-8
Codec ID : S_TEXT/UTF8
Codec ID/Info : UTF-8 Plain Text
Duration : 1 h 45 min
Bit rate : 90 b/s
Frame rate : 0.235 FPS
Count of elements : 1482
Stream size : 69.8 KiB (0%)
Title : Full | stirlooo
Language : Russian
Default : No
Forced : No
Text #2
ID : 5
Format : UTF-8
Codec ID : S_TEXT/UTF8
Codec ID/Info : UTF-8 Plain Text
Duration : 1 h 35 min
Bit rate : 3 b/s
Frame rate : 0.015 FPS
Count of elements : 88
Stream size : 2.72 KiB (0%)
Title : Forced
Language : English
Default : No
Forced : No
Text #3
ID : 6
Format : UTF-8
Codec ID : S_TEXT/UTF8
Codec ID/Info : UTF-8 Plain Text
Duration : 1 h 48 min
Bit rate : 56 b/s
Frame rate : 0.250 FPS
Count of elements : 1626
Stream size : 45.1 KiB (0%)
Title : Full
Language : English
Default : No
Forced : No
Text #4
ID : 7
Format : UTF-8
Codec ID : S_TEXT/UTF8
Codec ID/Info : UTF-8 Plain Text
Duration : 1 h 50 min
Bit rate : 71 b/s
Frame rate : 0.307 FPS
Count of elements : 2037
Stream size : 58.2 KiB (0%)
Title : SDH
Language : English
Default : No
Forced : No
Text #5
ID : 8
Format : UTF-8
Codec ID : S_TEXT/UTF8
Codec ID/Info : UTF-8 Plain Text
Duration : 1 h 54 min
Bit rate : 38 b/s
Frame rate : 0.194 FPS
Count of elements : 1339
Stream size : 32.5 KiB (0%)
Title : Full
Language : French
Default : No
Forced : No
Скриншоты:
Все одноименные релизы в КлубеВремя раздачи: как минимум до появления первых 3-5 скачавших, 24/7 (мультитрекерная раздача)
[Профиль] [ЛС]
Показать сообщения:    
Ответить на тему

Текущее время: 29-Фев 12:27

Часовой пояс: UTC ± 0



Вы не можете начинать темы
Вы не можете отвечать на сообщения
Вы не можете редактировать свои сообщения
Вы не можете удалять свои сообщения
Вы не можете голосовать в опросах
Вы не можете прикреплять файлы к сообщениям
Вы не можете скачивать файлы

[  Время выполнения: 0,029 сек  |  MySQL: 0,002 сек (8%) · 3 запр.  |  GZIP выкл  |  Память: 422,29 KB / 1,73 MB / 1,35 MB  |  Лимит: 16 17 15  ]