Земля мафии / Mob Land (2023) WEB-DLRip [H.264/1080p-Q] MVO] [AD]

Ответить на тему
 
Автор Сообщение

admin ®

Пол: Не указан

Стаж: 4 месяца 27 дня

Сообщений: 10110

Создавать темы 30-Янв-2024 17:30

[Цитировать]

Земля мафии / Mob Land (2023) WEB-DLRip [H.264/1080p-Q]- Производство: Канада / 308 EntBondIt Media CapitalBuffalo 8 Productions
Жанр: боевик, триллер, криминал
Режиссер: Николас Маджио
Актеры: Шайло Фернандес, Кевин Диллон, Джон Траволта, Стивен Дорфф, Дональд Оум, Эшли Бенсон, Тимоти В. Мерфи, Роберт Миано, Эмили Треймейн, Томми Дж. Кендрик
Описание:
Провинциальный американский городок. Простые работяги Шелби и Трей решают устроить дерзкое ограбление, чтобы достать деньги для своей семьи. Их преступление идет не по плану, из-за чего они ввязываются в перестрелку, убивают двух человек и едва скрываются с места. Вскоре на их след нападает опытный шериф Боди Дэвис, который хочет во что бы то ни стало покончить с наркобизнесом, медленно пожирающим его родной город. Однако служитель закона оказывается вовсе не самым опасным противником Шелби и Трея. Грабители даже не подозревают, что украденные ими деньги принадлежат могущественному мафиозному боссу, который жаждет отомстить людям, сорвавшим его планы.
Рейтинг MPAA: R (Лицам до 17 обязательно присутствие взрослых)
Продолжительность: 01:48:50
Качество видео: WEB-DLRip (1080p)
Перевод: Многоголосый профессиональный (AlphaProject)
Язык озвучки: Русский
Субтитры: Отсутствуют
Реклама: Присутствует баннер.
Видео: AVC/H.264, 1920x800, ~8161 Kbps
Аудио: AC3, 2 ch, 384 Kbps

MediaInfo:

Общее
Полное имя : D:\NNM\Земля мафии\Mob.Land.2023.WEB-DLRip.1080p-LQ.mkv
Формат : Matroska
Версия формата : Version 2
Размер файла : 6,63 Гбайт
Продолжительность : 1 ч. 48 м.
Режим общего битрейта : Постоянный
Общий поток : 8 719 Кбит/сек
Программа кодирования : libmatroska 1.4.1
Библиотека кодирования : SolveigMM Matroska Muxer Version 1.0.1904.23
Видео
Идентификатор : 1
Формат : AVC
Формат/Информация : Advanced Video Codec
Профиль формата : High@L4.1
Настройки формата : CABAC / 4 Ref Frames
Параметр CABAC формата : Да
Параметр RefFrames формата : 4 кадра
Идентификатор кодека : V_MPEG4/ISO/AVC
Продолжительность : 1 ч. 48 м.
Вид битрейта : Постоянный
Битрейт : 8 161 Кбит/сек
Номинальный битрейт : 9 000 Кбит/сек
Ширина : 1 920 пикселей
Высота : 800 пикселей
Соотношение сторон : 2,40:1
Режим частоты кадров : Постоянный
Частота кадров : 23,976 (24000/1001) кадра/сек
Стандарт вещания : Component
Цветовое пространство : YUV
Субдискретизация насыщенности : 4:2:0
Битовая глубина : 8 бит
Тип развёртки : Прогрессивная
Бит/(Пиксели*Кадры) : 0.222
Размер потока : 6,20 Гбайт (94%)
Библиотека кодирования : x264 core 155
Default : Нет
Forced : Нет
Цветовой диапазон : Limited
Основные цвета : BT.709
Характеристики трансфера : BT.709
Коэффициенты матрицы : BT.709
Аудио
Идентификатор : 2
Формат : AC-3
Формат/Информация : Audio Coding 3
Коммерческое название : Dolby Digital
Идентификатор кодека : A_AC3
Продолжительность : 1 ч. 48 м.
Вид битрейта : Постоянный
Битрейт : 384 Кбит/сек
Каналы : 2 канала
Channel layout : L R
Частота : 48,0 КГц
Частота кадров : 31,250 кадров/сек (1536 SPF)
Метод сжатия : С потерями
Размер потока : 299 Мбайт (4%)
Язык : Russian
Service kind : Complete Main
Default : Нет
Forced : Нет
Скриншоты: Все одноименные релизы в КлубеВремя раздачи: 24/7 (до 10-ти скачавших)
[Профиль] [ЛС]
Показать сообщения:    
Ответить на тему

Текущее время: 25-Фев 18:16

Часовой пояс: UTC ± 0



Вы не можете начинать темы
Вы не можете отвечать на сообщения
Вы не можете редактировать свои сообщения
Вы не можете удалять свои сообщения
Вы не можете голосовать в опросах
Вы не можете прикреплять файлы к сообщениям
Вы не можете скачивать файлы

[  Время выполнения: 0,038 сек  |  MySQL: 0,003 сек (9%) · 3 запр.  |  GZIP выкл  |  Память: 422,29 KB / 1,74 MB / 1,34 MB  |  Лимит: 16 14 12  ]