Свинка / Cerdita / Piggy (2022) BDRip [H.264/1080p]

Ответить на тему
 
Автор Сообщение

admin ®

Пол: Не указан

Стаж: 5 месяца

Сообщений: 10110

Создавать темы 30-Янв-2024 17:29

[Цитировать]

Свинка / Cerdita / Piggy (2022) BDRip [H.264/1080p] - Производство: Испания, Франция / Backup Films, Cerdita, Comunidad de Madrid
Жанр: триллер, драма
Режиссер: Карлота Переда
Актеры: Лаура Галан, Ричард Холмс, Кармен Мачи, Клаудия Салас, Ирене Феррейро, Камилль Агиляр, Хосе Пастор, Пилар Кастро, Хулиан Валькарсель-Карбонель, Фернандо Дельгадо-Хиерроо
Описание:
Девочка-подросток Сара страдает от буллинга со стороны ровесников и взрослых, которые травят ее из-за лишнего веса. Однажды свидетелем издевательств становится таинственный незнакомец на фургоне. Он похищает девушек, устроивших травлю Сары, и увозит в неизвестном направлении. Когда полиция опрашивает героиню о подробностях случившегося, Сара решает промолчать, ведь таинственный маньяк оказался единственным человеком, вставшим на ее защиту. «Свинка» — социальный триллер о психологическом и физическом насилии, которое порождает еще больше ненависти и боли.
Возраст: 18+ (зрителям, достигшим 18 лет. запрещено для детей)
Релиз от: селезень
Продолжительность: 01:40:05
Качество видео: BDRip
Перевод: Дублированный (Мосфильм-Мастер)
Язык озвучки: Русский, Испанский
Субтитры: Русские, Английские
Видео: AVC/H.264, 1440x1080, 12.7 Мbps
Аудио 1: AC3, 6 ch, 448 Kbps - русский
Аудио 2: Е-AC3, 6 ch, 448 Kbps - русский
Аудио 3: АС3, 6 ch, 640 Kbps - испанский

MediaInfo:

General
Unique ID : 190960253139097343903608785718617273643 (0x8FA99B6270CFC44FE5A4FA30A99F752B)
Complete name : G:VideoG1Cerdita.2022.BDRip.1080p.seleZen.mkv
Format : Matroska
Format version : Version 4
File size : 9.96 GiB
Duration : 1 h 40 min
Overall bit rate : 14.2 Mb/s
Frame rate : 24.000 FPS
Movie name : Cerdita 2022 from seleZen
Encoded date : 2023-08-28 08:42:23 UTC
Writing application : mkvmerge v63.0.0 ('Everything') 64-bit
Writing library : libebml v1.4.2 + libmatroska v1.6.4
Video
ID : 1
Format : AVC
Format/Info : Advanced Video Codec
Format profile : High@L4.1
Format settings : CABAC / 5 Ref Frames
Format settings, CABAC : Yes
Format settings, Reference : 5 frames
Codec ID : V_MPEG4/ISO/AVC
Duration : 1 h 40 min
Bit rate : 12.7 Mb/s
Width : 1 440 pixels
Height : 1 080 pixels
Display aspect ratio : 4:3
Frame rate mode : Constant
Frame rate : 24.000 FPS
Color space : YUV
Chroma subsampling : 4:2:0
Bit depth : 8 bits
Scan type : Progressive
Bits/(Pixel*Frame) : 0.340
Stream size : 8.88 GiB (89%)
Title : playHD
Writing library : x264 core 164 r3065+55M 280faca t_mod_New [(8 & 10)-bit@all X86_64]
Encoding settings : cabac=1 / ref=5 / deblock=1:-3:-3 / analyse=0x3:0x133 / me=umh / subme=10 / psy=1 / fade_compensate=0.00 / psy_rd=1.00:0.00 / mixed_ref=1 / me_range=32 / chroma_me=1 / trellis=2 / 8x8dct=1 / cqm=0 / deadzone=21,11 / fast_pskip=0 / chroma_qp_offset=-2 / threads=24 / lookahead_threads=4 / sliced_threads=0 / nr=0 / decimate=0 / interlaced=0 / bluray_compat=0 / constrained_intra=0 / fgo=0 / bframes=8 / b_pyramid=2 / b_adapt=2 / b_bias=0 / direct=3 / weightb=1 / open_gop=0 / weightp=2 / keyint=250 / keyint_min=24 / scenecut=40 / intra_refresh=0 / rc=crf / mbtree=0 / crf=16.5000 / qcomp=0.60 / qpmin=0:0:0 / qpmax=69:69:69 / qpstep=4 / ip_ratio=1.30 / pb_ratio=1.20 / aq=3:0.85 / aq-sensitivity=10.00 / aq-factor=1.00:1.00:1.00 / aq2=0 / aq3=0
Language : Spanish
Default : Yes
Forced : No
Audio #1
ID : 2
Format : AC-3
Format/Info : Audio Coding 3
Commercial name : Dolby Digital
Codec ID : A_AC3
Duration : 1 h 39 min
Bit rate mode : Constant
Bit rate : 448 kb/s
Channel(s) : 6 channels
Channel layout : L R C LFE Ls Rs
Sampling rate : 48.0 kHz
Frame rate : 31.250 FPS (1536 SPF)
Compression mode : Lossy
Stream size : 319 MiB (3%)
Title : Dub
Language : Russian
Service kind : Complete Main
Default : Yes
Forced : Yes
Audio #2
ID : 3
Format : E-AC-3
Format/Info : Enhanced AC-3
Commercial name : Dolby Digital Plus
Codec ID : A_EAC3
Duration : 1 h 39 min
Bit rate mode : Constant
Bit rate : 448 kb/s
Channel(s) : 6 channels
Channel layout : L R C LFE Ls Rs
Sampling rate : 48.0 kHz
Frame rate : 31.250 FPS (1536 SPF)
Compression mode : Lossy
Stream size : 319 MiB (3%)
Title : Dub
Language : Russian
Service kind : Complete Main
Default : No
Forced : No
Audio #3
ID : 4
Format : AC-3
Format/Info : Audio Coding 3
Commercial name : Dolby Digital
Codec ID : A_AC3
Duration : 1 h 40 min
Bit rate mode : Constant
Bit rate : 640 kb/s
Channel(s) : 6 channels
Channel layout : L R C LFE Ls Rs
Sampling rate : 48.0 kHz
Frame rate : 31.250 FPS (1536 SPF)
Compression mode : Lossy
Stream size : 458 MiB (4%)
Title : Original
Language : Spanish
Service kind : Complete Main
Default : No
Forced : No
Text #1
ID : 5
Format : UTF-8
Codec ID : S_TEXT/UTF8
Codec ID/Info : UTF-8 Plain Text
Duration : 1 h 32 min
Bit rate : 55 b/s
Frame rate : 0.151 FPS
Count of elements : 835
Stream size : 37.5 KiB (0%)
Title : Full
Language : Russian
Default : No
Forced : No
Text #2
ID : 6
Format : UTF-8
Codec ID : S_TEXT/UTF8
Codec ID/Info : UTF-8 Plain Text
Duration : 1 h 34 min
Bit rate : 31 b/s
Frame rate : 0.143 FPS
Count of elements : 809
Stream size : 21.8 KiB (0%)
Language : English
Default : No
Forced : No
Menu
00:00:00.000 : Chapter 01
00:08:01.542 : Chapter 02
00:15:50.292 : Chapter 03
00:24:08.458 : Chapter 04
00:31:41.542 : Chapter 05
00:39:59.417 : Chapter 06
00:48:08.333 : Chapter 07
00:54:57.958 : Chapter 08
01:02:28.792 : Chapter 09
01:10:03.083 : Chapter 10
01:18:16.667 : Chapter 11
01:26:33.375 : Chapter 12
01:35:43.583 : Chapter 13
01:39:36.917 : Chapter 14
Скриншоты:
Все одноименные релизы в КлубеВремя раздачи: 24/7 (мультитрекер)
[Профиль] [ЛС]
Показать сообщения:    
Ответить на тему

Текущее время: 28-Фев 21:46

Часовой пояс: UTC ± 0



Вы не можете начинать темы
Вы не можете отвечать на сообщения
Вы не можете редактировать свои сообщения
Вы не можете удалять свои сообщения
Вы не можете голосовать в опросах
Вы не можете прикреплять файлы к сообщениям
Вы не можете скачивать файлы

[  Время выполнения: 0,033 сек  |  MySQL: 0,002 сек (6%) · 3 запр.  |  GZIP выкл  |  Память: 422,29 KB / 1,74 MB / 1,34 MB  |  Лимит: 15 15 15  ]