Свинка / Cerdita / Piggy (2022) BDRemux [H.264/1080p]

Ответить на тему
 
Автор Сообщение

admin ®

Пол: Не указан

Стаж: 6 месяца 22 дня

Сообщений: 11520

Создавать темы 30-Янв-2024 17:29

[Цитировать]

Свинка / Cerdita / Piggy (2022) BDRemux [H.264/1080p] - Производство: Испания / Backup Films, Cerdita, Comunidad de Madrid
Жанр: триллер, драма
Режиссер: Карлота Переда
Актеры: Лаура Галан, Ричард Холмс, Кармен Мачи, Клаудия Салас, Ирене Феррейро, Камилль Агиляр, Хосе Пастор, Пилар Кастро, Хулиан Валькарсель-Карбонель, Фернандо Дельгадо-Хиерроо
Описание:
Девочка-подросток Сара страдает от буллинга со стороны ровесников и взрослых, которые травят ее из-за лишнего веса. Однажды свидетелем издевательств становится таинственный незнакомец на фургоне. Он похищает девушек, устроивших травлю Сары, и увозит в неизвестном направлении. Когда полиция опрашивает героиню о подробностях случившегося, Сара решает промолчать, ведь таинственный маньяк оказался единственным человеком, вставшим на ее защиту. «Свинка» — социальный триллер о психологическом и физическом насилии, которое порождает еще больше ненависти и боли.
Возраст: 18+ (зрителям, достигшим 18 лет. запрещено для детей)
Релиз от: селезень
Продолжительность: 01:40:05
Качество видео: BDRemux
Перевод: Дублированный (Мосфильм-Мастер)
Язык озвучки: Русский, Испанский
Субтитры: Русские, Английские
Видео: AVC/H.264, 1920x1080, 16.0 Мbps
Аудио 1: AC3, 6 ch, 448 Kbps - русский
Аудио 2: Е-AC3, 6 ch, 448 Kbps - русский
Аудио 3: DTS-HD MA, 6 ch, 1969 Kbps - испанский

MediaInfo:

General
Unique ID : 153582679113515383863192711008355195800 (0x738AF2B4591CBE9FCFE876D683CD9B98)
Complete name : G:\VideoG\1\Cerdita.2022.BDREMUX.1080p.seleZen.mkv
Format : Matroska
Format version : Version 4
File size : 13.2 GiB
Duration : 1 h 40 min
Overall bit rate mode : Variable
Overall bit rate : 18.9 Mb/s
Frame rate : 24.000 FPS
Movie name : Cerdita 2022 from seleZen
Encoded date : 2023-08-28 08:48:28 UTC
Writing application : mkvmerge v63.0.0 ('Everything') 64-bit
Writing library : libebml v1.4.2 + libmatroska v1.6.4
Video
ID : 1
Format : AVC
Format/Info : Advanced Video Codec
Format profile : High@L4.1
Format settings : CABAC / 4 Ref Frames
Format settings, CABAC : Yes
Format settings, Reference : 4 frames
Codec ID : V_MPEG4/ISO/AVC
Duration : 1 h 40 min
Bit rate mode : Variable
Bit rate : 16.0 Mb/s
Maximum bit rate : 38.0 Mb/s
Width : 1 920 pixels
Height : 1 080 pixels
Display aspect ratio : 16:9
Frame rate mode : Constant
Frame rate : 24.000 FPS
Standard : Component
Color space : YUV
Chroma subsampling : 4:2:0
Bit depth : 8 bits
Scan type : Progressive
Bits/(Pixel*Frame) : 0.322
Stream size : 11.2 GiB (85%)
Writing library : x264 core 155
Encoding settings : cabac=1 / ref=4 / deblock=1:0:0 / analyse=0x3:0x133 / me=umh / subme=9 / psy=1 / psy_rd=1.00:0.00 / mixed_ref=1 / me_range=16 / chroma_me=1 / trellis=2 / 8x8dct=1 / cqm=1 / deadzone=21,11 / fast_pskip=1 / chroma_qp_offset=-2 / threads=34 / lookahead_threads=2 / sliced_threads=0 / slices=4 / nr=0 / decimate=1 / interlaced=0 / minigop=1 / stitchable=1 / constrained_intra=0 / bframes=3 / b_pyramid=0 / b_adapt=2 / b_bias=0 / direct=3 / weightb=1 / open_gop=1 / weightp=1 / keyint=24 / keyint_min=1 / scenecut=40 / intra_refresh=0 / rc_lookahead=24 / rc=2pass / mbtree=1 / bitrate=16000 / ratetol=1.0 / qcomp=0.60 / qpmin=3 / qpmax=69 / qpstep=4 / cplxblur=20.0 / qblur=0.5 / vbv_maxrate=38000 / vbv_bufsize=30000 / nal_hrd=vbr / filler=0 / ip_ratio=1.40 / aq=1:1.00
Language : Spanish
Default : Yes
Forced : No
Color range : Limited
Color primaries : BT.709
Transfer characteristics : BT.709
Matrix coefficients : BT.709
Audio #1
ID : 2
Format : AC-3
Format/Info : Audio Coding 3
Commercial name : Dolby Digital
Codec ID : A_AC3
Duration : 1 h 39 min
Bit rate mode : Constant
Bit rate : 448 kb/s
Channel(s) : 6 channels
Channel layout : L R C LFE Ls Rs
Sampling rate : 48.0 kHz
Frame rate : 31.250 FPS (1536 SPF)
Compression mode : Lossy
Stream size : 319 MiB (2%)
Title : Dub
Language : Russian
Service kind : Complete Main
Default : Yes
Forced : Yes
Audio #2
ID : 3
Format : E-AC-3
Format/Info : Enhanced AC-3
Commercial name : Dolby Digital Plus
Codec ID : A_EAC3
Duration : 1 h 39 min
Bit rate mode : Constant
Bit rate : 448 kb/s
Channel(s) : 6 channels
Channel layout : L R C LFE Ls Rs
Sampling rate : 48.0 kHz
Frame rate : 31.250 FPS (1536 SPF)
Compression mode : Lossy
Stream size : 319 MiB (2%)
Title : Dub
Language : Russian
Service kind : Complete Main
Default : No
Forced : No
Audio #3
ID : 4
Format : DTS XLL
Format/Info : Digital Theater Systems
Commercial name : DTS-HD Master Audio
Codec ID : A_DTS
Duration : 1 h 40 min
Bit rate mode : Variable
Bit rate : 1 969 kb/s
Channel(s) : 6 channels
Channel layout : C L R Ls Rs LFE
Sampling rate : 48.0 kHz
Frame rate : 93.750 FPS (512 SPF)
Bit depth : 16 bits
Compression mode : Lossless
Stream size : 1.38 GiB (10%)
Title : Original
Language : Spanish
Default : No
Forced : No
Text #1
ID : 5
Format : UTF-8
Codec ID : S_TEXT/UTF8
Codec ID/Info : UTF-8 Plain Text
Duration : 1 h 32 min
Bit rate : 55 b/s
Frame rate : 0.151 FPS
Count of elements : 835
Stream size : 37.5 KiB (0%)
Title : Full
Language : Russian
Default : No
Forced : No
Text #2
ID : 6
Format : UTF-8
Codec ID : S_TEXT/UTF8
Codec ID/Info : UTF-8 Plain Text
Duration : 1 h 34 min
Bit rate : 31 b/s
Frame rate : 0.143 FPS
Count of elements : 809
Stream size : 21.8 KiB (0%)
Language : English
Default : No
Forced : No
Menu
00:00:00.000 : Chapter 01
00:08:01.542 : Chapter 02
00:15:50.292 : Chapter 03
00:24:08.458 : Chapter 04
00:31:41.542 : Chapter 05
00:39:59.417 : Chapter 06
00:48:08.333 : Chapter 07
00:54:57.958 : Chapter 08
01:02:28.792 : Chapter 09
01:10:03.083 : Chapter 10
01:18:16.667 : Chapter 11
01:26:33.375 : Chapter 12
01:35:43.583 : Chapter 13
01:39:36.917 : Chapter 14
Скриншоты:
Все одноименные релизы в КлубеВремя раздачи: 24/7 (мультитрекер)
[Профиль] [ЛС]
Показать сообщения:    
Ответить на тему

Текущее время: 20-Апр 19:32

Часовой пояс: UTC ± 0



Вы не можете начинать темы
Вы не можете отвечать на сообщения
Вы не можете редактировать свои сообщения
Вы не можете удалять свои сообщения
Вы не можете голосовать в опросах
Вы не можете прикреплять файлы к сообщениям
Вы не можете скачивать файлы

[  Время выполнения: 0,038 сек  |  MySQL: 0,003 сек (9%) · 3 запр.  |  GZIP выкл  |  Память: 422,29 KB / 1,74 MB / 1,34 MB  |  Лимит: 7 6 8  ]