Без обид / No Hard Feelings (2023) BDRemux [H.264/1080p]

Ответить на тему
 
Автор Сообщение

admin ®

Пол: Не указан

Стаж: 5 месяца

Сообщений: 10110

Создавать темы 30-Янв-2024 17:29

[Цитировать]

Без обид / No Hard Feelings (2023) BDRemux [H.264/1080p] - Производство: США / Excellent Cadaver, Odenkirk Provissiero Entertainment, Sony Pictures Entertainment (SPE)
Жанр: комедия, мелодрама
Режиссер: Джин Ступницки
Актеры: Дженнифер Лоуренс, Эндрю Барт Фельдман, Лаура Бенанти, Мэттью Бродерик, Натали Моралес, Скотт Макартур, Эбон Мосс-Бакрак, Кайл Муни, Хасан Минхадж, Jordan Mendoza
Описание:
Мэдди 32 года, она всю жизнь прожила в Монтоке — курортном местечке недалеко от Нью-Йорка. Богачи скупают тут недвижимость, налоги постоянно растут, а девушка пытается сохранить доставшийся в наследство от матери дом, поэтому оказывается по уши в долгах. Лишившись автомобиля и возможности таксовать, она в обмен на машину решает помочь богатеньким родителям, которые волнуются, что их 18-летнему сыну скоро в колледж, а он всё никак не вылезет из своей раковины. Задача Мэдди — лишить парня девственности, но сделать это оказывается не так-то просто.
Возраст: 18+ (зрителям, достигшим 18 лет. запрещено для детей)
Рейтинг MPAA: R (лицам до 17 лет обязательно присутствие взрослого)
Продолжительность: 01:43:23
Качество видео: Blu-Ray Remux (1080p)
Перевод: Дублированный, Многоголосый профессиональный
Язык озвучки: Русский, украинский, английский
Субтитры: Русские (forced, full), украинские (forced, full), английские (forced, full, SDH)
Видео: AVC/H.264, 1920x1080, 27.8 Mbps
Аудио 1: АС3, 6 ch, 384 Kbps - Русский (Dub, MovieDalen)
Аудио 2: АС3, 6 ch, 384 Kbps - Русский (MVO, TVShows)
Аудио 3: АС3, 6 ch, 384 Kbps - Русский (MVO, Jaskier)
Аудио 4: АС3, 6 ch, 384 Kbps - Украинский (Dub, LeDoyen)
Аудио 5: АС3, 6 ch, 640 Kbps - Английский (Оригиннал)

MediaInfo:

Общее
Уникальный идентификатор : 21035329937018136142952834859545721705 (0xFD341D6A6DDB3F23D9BD7637D4CFB69)
Полное имя : D:\NNM\Без обид\No.Hard.Feelings.2023.D.MVO.BDREMUX.1080p.seleZen.mkv
Формат : Matroska
Версия формата : Version 4
Размер файла : 22,8 Гбайт
Продолжительность : 1 ч. 43 м.
Режим общего битрейта : Переменный
Общий поток : 31,5 Мбит/сек
Название фильма : No Hard Feelings 2023 from seleZen
Дата кодирования : UTC 2023-08-28 09:51:57
Программа кодирования : mkvmerge v63.0.0 ('Everything') 64-bit
Библиотека кодирования : libebml v1.4.2 + libmatroska v1.6.4
Обложка : Yes
Attachments : cover.jpg / small_cover.jpg
Видео
Идентификатор : 1
Формат : AVC
Формат/Информация : Advanced Video Codec
Профиль формата : High@L4.1
Настройки формата : CABAC / 2 Ref Frames
Параметр CABAC формата : Да
Параметр RefFrames формата : 2 кадра
Параметр GOP формата : M=1, N=10
Идентификатор кодека : V_MPEG4/ISO/AVC
Продолжительность : 1 ч. 43 м.
Вид битрейта : Переменный
Битрейт : 27,8 Мбит/сек
Ширина : 1 920 пикселей
Высота : 1 080 пикселей
Соотношение сторон : 16:9
Режим частоты кадров : Постоянный
Частота кадров : 23,976 (24000/1001) кадра/сек
Цветовое пространство : YUV
Субдискретизация насыщенности : 4:2:0
Битовая глубина : 8 бит
Тип развёртки : Прогрессивная
Бит/(Пиксели*Кадры) : 0.560
Размер потока : 20,1 Гбайт (88%)
Язык : English
Default : Да
Forced : Нет
Аудио #1
Идентификатор : 2
Формат : AC-3
Формат/Информация : Audio Coding 3
Коммерческое название : Dolby Digital
Идентификатор кодека : A_AC3
Продолжительность : 1 ч. 43 м.
Вид битрейта : Постоянный
Битрейт : 384 Кбит/сек
Каналы : 6 каналов
Channel layout : L R C LFE Ls Rs
Частота : 48,0 КГц
Частота кадров : 31,250 кадров/сек (1536 SPF)
Метод сжатия : С потерями
Размер потока : 284 Мбайт (1%)
Заголовок : Dub [MovieDalen]
Язык : Russian
Service kind : Complete Main
Default : Да
Forced : Да
Аудио #2
Идентификатор : 3
Формат : AC-3
Формат/Информация : Audio Coding 3
Коммерческое название : Dolby Digital
Идентификатор кодека : A_AC3
Продолжительность : 1 ч. 43 м.
Вид битрейта : Постоянный
Битрейт : 384 Кбит/сек
Каналы : 6 каналов
Channel layout : L R C LFE Ls Rs
Частота : 48,0 КГц
Частота кадров : 31,250 кадров/сек (1536 SPF)
Метод сжатия : С потерями
Размер потока : 285 Мбайт (1%)
Заголовок : MVO [TVShows]
Язык : Russian
Service kind : Complete Main
Default : Нет
Forced : Нет
Аудио #3
Идентификатор : 4
Формат : AC-3
Формат/Информация : Audio Coding 3
Коммерческое название : Dolby Digital
Идентификатор кодека : A_AC3
Продолжительность : 1 ч. 43 м.
Вид битрейта : Постоянный
Битрейт : 384 Кбит/сек
Каналы : 6 каналов
Channel layout : L R C LFE Ls Rs
Частота : 48,0 КГц
Частота кадров : 31,250 кадров/сек (1536 SPF)
Метод сжатия : С потерями
Размер потока : 284 Мбайт (1%)
Заголовок : MVO [Jaskier] 18 +
Язык : Russian
Service kind : Complete Main
Default : Нет
Forced : Нет
Аудио #4
Идентификатор : 5
Формат : AC-3
Формат/Информация : Audio Coding 3
Коммерческое название : Dolby Digital
Идентификатор кодека : A_AC3
Продолжительность : 1 ч. 43 м.
Вид битрейта : Постоянный
Битрейт : 384 Кбит/сек
Каналы : 6 каналов
Channel layout : L R C LFE Ls Rs
Частота : 48,0 КГц
Частота кадров : 31,250 кадров/сек (1536 SPF)
Метод сжатия : С потерями
Размер потока : 284 Мбайт (1%)
Заголовок : Dub [LeDoyen]
Язык : Ukrainian
Service kind : Complete Main
Default : Нет
Forced : Нет
Аудио #5
Идентификатор : 6
Формат : DTS XLL
Формат/Информация : Digital Theater Systems
Коммерческое название : DTS-HD Master Audio
Идентификатор кодека : A_DTS
Продолжительность : 1 ч. 43 м.
Вид битрейта : Переменный
Битрейт : 2 229 Кбит/сек
Каналы : 6 каналов
Channel layout : C L R Ls Rs LFE
Частота : 48,0 КГц
Частота кадров : 93,750 кадра/сек (512 SPF)
Битовая глубина : 16 бит
Метод сжатия : Без потерь
Размер потока : 1,61 Гбайт (7%)
Заголовок : Original
Язык : English
Default : Нет
Forced : Нет
Текст #1
Идентификатор : 7
Формат : UTF-8
Идентификатор кодека : S_TEXT/UTF8
Идентификатор кодека/Информация : UTF-8 Plain Text
Продолжительность : 1 ч. 26 м.
Битрейт : 0 бит/сек
Count of elements : 14
Размер потока : 454 байт (0%)
Заголовок : Forced
Язык : Russian
Default : Да
Forced : Да
Текст #2
Идентификатор : 8
Формат : UTF-8
Идентификатор кодека : S_TEXT/UTF8
Идентификатор кодека/Информация : UTF-8 Plain Text
Продолжительность : 1 ч. 42 м.
Битрейт : 96 бит/сек
Count of elements : 1549
Размер потока : 72,1 Кбайт (0%)
Заголовок : Full
Язык : Russian
Default : Нет
Forced : Нет
Текст #3
Идентификатор : 9
Формат : UTF-8
Идентификатор кодека : S_TEXT/UTF8
Идентификатор кодека/Информация : UTF-8 Plain Text
Продолжительность : 1 ч. 42 м.
Битрейт : 0 бит/сек
Count of elements : 14
Размер потока : 440 байт (0%)
Заголовок : Forced
Язык : Ukrainian
Default : Нет
Forced : Нет
Текст #4
Идентификатор : 10
Формат : UTF-8
Идентификатор кодека : S_TEXT/UTF8
Идентификатор кодека/Информация : UTF-8 Plain Text
Продолжительность : 1 ч. 42 м.
Битрейт : 93 бит/сек
Count of elements : 1546
Размер потока : 70,1 Кбайт (0%)
Заголовок : Full
Язык : Ukrainian
Default : Нет
Forced : Нет
Текст #5
Идентификатор : 11
Формат : UTF-8
Идентификатор кодека : S_TEXT/UTF8
Идентификатор кодека/Информация : UTF-8 Plain Text
Продолжительность : 4 с. 4 мс.
Битрейт : 71 бит/сек
Count of elements : 2
Размер потока : 36,0 байт (0%)
Заголовок : Forced
Язык : English
Default : Нет
Forced : Нет
Текст #6
Идентификатор : 12
Формат : UTF-8
Идентификатор кодека : S_TEXT/UTF8
Идентификатор кодека/Информация : UTF-8 Plain Text
Продолжительность : 1 ч. 35 м.
Битрейт : 67 бит/сек
Count of elements : 1527
Размер потока : 47,2 Кбайт (0%)
Заголовок : Full
Язык : English
Default : Нет
Forced : Нет
Текст #7
Идентификатор : 13
Формат : UTF-8
Идентификатор кодека : S_TEXT/UTF8
Идентификатор кодека/Информация : UTF-8 Plain Text
Продолжительность : 1 ч. 40 м.
Битрейт : 77 бит/сек
Count of elements : 1810
Размер потока : 57,5 Кбайт (0%)
Заголовок : SDH
Язык : English
Default : Нет
Forced : Нет
Меню
00:00:00.000 : en:Chapter 1
00:06:45.613 : en:Chapter 2
00:12:36.423 : en:Chapter 3
00:18:26.356 : en:Chapter 4
00:27:05.959 : en:Chapter 5
00:33:23.086 : en:Chapter 6
00:39:58.273 : en:Chapter 7
00:44:47.729 : en:Chapter 8
00:52:06.376 : en:Chapter 9
01:01:06.416 : en:Chapter 10
01:06:52.303 : en:Chapter 11
01:11:07.934 : en:Chapter 12
01:20:21.112 : en:Chapter 13
01:23:51.156 : en:Chapter 14
01:32:26.796 : en:Chapter 15
01:35:05.121 : en:Chapter 16
Скриншоты:
Все одноименные релизы в КлубеВремя раздачи: 24/7 (до 10-ти скачавших)
[Профиль] [ЛС]
Показать сообщения:    
Ответить на тему

Текущее время: 28-Фев 22:17

Часовой пояс: UTC ± 0



Вы не можете начинать темы
Вы не можете отвечать на сообщения
Вы не можете редактировать свои сообщения
Вы не можете удалять свои сообщения
Вы не можете голосовать в опросах
Вы не можете прикреплять файлы к сообщениям
Вы не можете скачивать файлы

[  Время выполнения: 0,044 сек  |  MySQL: 0,003 сек (7%) · 3 запр.  |  GZIP выкл  |  Память: 422,29 KB / 1,77 MB / 1,4 MB  |  Лимит: 22 21 19  ]