Свинка / Cerdita / Piggy (2022) BDRip [H.264]

Ответить на тему
 
Автор Сообщение

admin ®

Пол: Не указан

Стаж: 5 месяца 1 день

Сообщений: 10110

Создавать темы 30-Янв-2024 17:29

[Цитировать]

Свинка / Cerdita / Piggy (2022) BDRip [H.264] - Производство: Испания, Франция / Backup Films, Cerdita, Comunidad de Madrid
Жанр: триллер, драма
Режиссер: Карлота Переда
Актеры: Лаура Галан, Ричард Холмс, Кармен Мачи, Клаудия Салас, Ирене Феррейро, Камилль Агиляр, Хосе Пастор, Пилар Кастро, Хулиан Валькарсель-Карбонель, Фернандо Дельгадо-Хиерроо
Описание:
Девочка-подросток Сара страдает от буллинга со стороны ровесников и взрослых, которые травят ее из-за лишнего веса. Однажды свидетелем издевательств становится таинственный незнакомец на фургоне. Он похищает девушек, устроивших травлю Сары, и увозит в неизвестном направлении. Когда полиция опрашивает героиню о подробностях случившегося, Сара решает промолчать, ведь таинственный маньяк оказался единственным человеком, вставшим на ее защиту. «Свинка» — социальный триллер о психологическом и физическом насилии, которое порождает еще больше ненависти и боли.
Возраст: 18+ (зрителям, достигшим 18 лет. запрещено для детей)
Релиз от: -=DoMiNo=-
Продолжительность: 01:40:05
Качество видео: BDRip
Перевод: Дублированный (Мосфильм-Мастер)
Язык озвучки: Русский, Испанский
Субтитры: Русские, Английские
Видео: AVC/H.264, 768x576, ~1688 Кbps
Аудио 1: AC3, 6 ch, 448 Kbps - русский
Аудио 2: АС3, 6 ch, 448 Kbps - испанский

MediaInfo:

General
Unique ID : 210149687762382433963913440728318823952 (0x9E195B8EB8EB01689CABD2717E9D4E10)
Complete name : O:Piggy.2022.D.BDRip.x264.seleZen.mkv
Format : Matroska
Format version : Version 4
File size : 1.81 GiB
Duration : 1 h 40 min
Overall bit rate : 2 584 kb/s
Frame rate : 24.000 FPS
Movie name : Piggy.2022.D.BDRip.x264.seleZen
Encoded date : 2023-08-28 09:29:33 UTC
Writing application : mkvmerge v79.0 ('Funeral Pyres') 64-bit
Writing library : libebml v1.4.4 + libmatroska v1.7.1
Cover : Yes
Attachments : cover.jpg / small_cover.jpg
Video
ID : 1
Format : AVC
Format/Info : Advanced Video Codec
Format profile : High@L4.1
Format settings : CABAC / 12 Ref Frames
Format settings, CABAC : Yes
Format settings, Reference : 12 frames
Codec ID : V_MPEG4/ISO/AVC
Duration : 1 h 40 min
Bit rate : 1 688 kb/s
Width : 768 pixels
Height : 576 pixels
Display aspect ratio : 4:3
Frame rate mode : Constant
Frame rate : 24.000 FPS
Color space : YUV
Chroma subsampling : 4:2:0
Bit depth : 8 bits
Scan type : Progressive
Bits/(Pixel*Frame) : 0.159
Stream size : 1.18 GiB (65%)
Title : -=DoMiNo=-
Writing library : x264 core 164 r3107+58M ae98796 t_mod_New | by -=DoMiNo=- | X86_64]
Encoding settings : cabac=1 / ref=12 / deblock=1:-2:-2 / analyse=0x3:0x133 / me=umh / subme=10 / psy=1 / fade_compensate=0.00 / psy_rd=1.05:0.05 / mixed_ref=1 / me_range=40 / chroma_me=1 / trellis=2 / 8x8dct=1 / cqm=0 / deadzone=21,11 / fast_pskip=0 / chroma_qp_offset=-3 / threads=18 / lookahead_threads=4 / sliced_threads=0 / nr=0 / decimate=1 / interlaced=0 / bluray_compat=0 / constrained_intra=0 / fgo=0 / bframes=12 / b_pyramid=2 / b_adapt=2 / b_bias=0 / direct=3 / weightb=1 / open_gop=0 / weightp=2 / keyint=240 / keyint_min=24 / scenecut=40 / intra_refresh=0 / rc_lookahead=60 / rc=crf / mbtree=0 / crf=18.0000 / qcomp=0.70 / qpmin=0:0:0 / qpmax=69:69:69 / qpstep=4 / vbv_maxrate=50000 / vbv_bufsize=62500 / crf_max=0.0 / nal_hrd=none / filler=0 / ip_ratio=1.35 / pb_ratio=1.25 / aq=3:0.90 / aq-sensitivity=10.00 / aq-factor=1.00:1.00:1.00:1.00 / aq2=0 / aq3=0
Language : English
Default : Yes
Forced : No
Color range : Limited
Color primaries : BT.709
Transfer characteristics : BT.709
Matrix coefficients : BT.709
Audio #1
ID : 2
Format : AC-3
Format/Info : Audio Coding 3
Commercial name : Dolby Digital
Codec ID : A_AC3
Duration : 1 h 39 min
Bit rate mode : Constant
Bit rate : 448 kb/s
Channel(s) : 6 channels
Channel layout : L R C LFE Ls Rs
Sampling rate : 48.0 kHz
Frame rate : 31.250 FPS (1536 SPF)
Compression mode : Lossy
Stream size : 319 MiB (17%)
Title : Dub
Language : Russian
Service kind : Complete Main
Default : Yes
Forced : No
Audio #2
ID : 3
Format : AC-3
Format/Info : Audio Coding 3
Commercial name : Dolby Digital
Codec ID : A_AC3
Duration : 1 h 40 min
Bit rate mode : Constant
Bit rate : 448 kb/s
Channel(s) : 6 channels
Channel layout : L R C LFE Ls Rs
Sampling rate : 48.0 kHz
Frame rate : 31.250 FPS (1536 SPF)
Compression mode : Lossy
Stream size : 321 MiB (17%)
Title : Original
Language : Spanish
Service kind : Complete Main
Default : No
Forced : No
Text #1
ID : 4
Format : UTF-8
Codec ID : S_TEXT/UTF8
Codec ID/Info : UTF-8 Plain Text
Duration : 1 h 32 min
Bit rate : 55 b/s
Frame rate : 0.151 FPS
Count of elements : 835
Stream size : 37.5 KiB (0%)
Title : FulL_18+
Language : Russian
Default : No
Forced : No
Text #2
ID : 5
Format : UTF-8
Codec ID : S_TEXT/UTF8
Codec ID/Info : UTF-8 Plain Text
Duration : 1 h 34 min
Bit rate : 31 b/s
Frame rate : 0.143 FPS
Count of elements : 809
Stream size : 21.8 KiB (0%)
Language : English
Default : No
Forced : No
Menu
00:00:00.000 : Chapter 01
00:08:01.542 : Chapter 02
00:15:50.292 : Chapter 03
00:24:08.458 : Chapter 04
00:31:41.542 : Chapter 05
00:39:59.417 : Chapter 06
00:48:08.333 : Chapter 07
00:54:57.958 : Chapter 08
01:02:28.792 : Chapter 09
01:10:03.083 : Chapter 10
01:18:16.667 : Chapter 11
01:26:33.375 : Chapter 12
01:35:43.583 : Chapter 13
01:39:36.917 : Chapter 14
Скриншоты:
Все одноименные релизы в КлубеВремя раздачи: 24/7 (мультитрекер)
[Профиль] [ЛС]
Показать сообщения:    
Ответить на тему

Текущее время: 29-Фев 12:42

Часовой пояс: UTC ± 0



Вы не можете начинать темы
Вы не можете отвечать на сообщения
Вы не можете редактировать свои сообщения
Вы не можете удалять свои сообщения
Вы не можете голосовать в опросах
Вы не можете прикреплять файлы к сообщениям
Вы не можете скачивать файлы

[  Время выполнения: 0,033 сек  |  MySQL: 0,003 сек (9%) · 3 запр.  |  GZIP выкл  |  Память: 422,29 KB / 1,74 MB / 1,34 MB  |  Лимит: 18 17 16  ]