Знакомство родителей / Maybe I Do (2023) BDRip [H.264/1080p-LQ]

Ответить на тему
 
Автор Сообщение

admin ®

Пол: Не указан

Стаж: 5 месяца

Сообщений: 10110

Создавать темы 30-Янв-2024 17:29

[Цитировать]

Знакомство родителей / Maybe I Do (2023) BDRip [H.264/1080p-LQ]- Производство: США / Endeavor Content, Vincent Newman Entertainment
Жанр: комедия, мелодрама
Режиссер: Майкл Джейкобс
Актеры: Эмма Робертс, Сьюзен Сарандон, Кевин Д. Бентон, Люк Брейси, Сетти Брозвельт, Ричард Гир, Джина Джун, Дайан Китон, Кирк Келли, Уильям Х. Мэйси, Валерия Марреро, Натали Ортега
Описание: Романтическая комедия, снятая Майклом Джейкобсом по его собственной пьесе "Мошенники"... Молодая пара решает пожениться и, наконец, познакомить своих родителей друг с другом. Но на общей встрече оказывается, что родители не просто знакомы, а имеют множество пикантных секретов как друг от друга, так и от молодоженов...
Возраст: 16+ (зрителям, достигшим 16 лет)
Рейтинг MPAA: PG-13 (детям до 13 лет просмотр нежелателен)
Релиз от: LORDKILL
Продолжительность: 01:34:41
Качество: BDRip 1080p
Перевод: Дублированный (Paragraph Media)
Язык озвучки: Русский
Субтитры: Отсутствуют
Видео: AVC/H.264, 1920x928, ~5000 Kbps
Аудио: AC3, 6 ch, 384 Kbps - Русский

MediaInfo

x264 [info]: frame I:1000  Avg QP:16.35  size:216831
x264 [info]: frame P:22953 Avg QP:18.66 size: 60225
x264 [info]: frame B:112407 Avg QP:21.17 size: 17361
x264 [info]: consecutive B-frames: 1.4% 0.6% 2.1% 9.3% 12.0% 23.7% 13.7% 33.5% 2.8% 0.5% 0.4%
General
Unique ID : 245224089350348363167612080907227535101 (0xB87C7111B5EB8CA66672A2E8C43496FD)
Complete name : D:\РЕМУКС\Знакомство родителей (2023).mkv
Format : Matroska
Format version : Version 4
File size : 3.56 GiB
Duration : 1 h 34 min
Overall bit rate : 5 385 kb/s
Frame rate : 24.000 FPS
Movie name : Знакомство родителей / Maybe I Do (2023) - #LORDKILL#
Encoded date : 2023-08-28 13:00:53 UTC
Writing application : mkvmerge v32.0.0 ('Astral Progressions') 64-bit
Writing library : libebml v1.3.7 + libmatroska v1.5.0
Video
ID : 1
Format : AVC
Format/Info : Advanced Video Codec
Format profile : Main@L4.1
Format settings : CABAC / 4 Ref Frames
Format settings, CABAC : Yes
Format settings, Reference : 4 frames
Codec ID : V_MPEG4/ISO/AVC
Duration : 1 h 34 min
Bit rate : 5 000 kb/s
Width : 1 920 pixels
Height : 928 pixels
Display aspect ratio : 2.069
Frame rate mode : Constant
Frame rate : 24.000 FPS
Color space : YUV
Chroma subsampling : 4:2:0
Bit depth : 8 bits
Scan type : Progressive
Bits/(Pixel*Frame) : 0.117
Stream size : 3.31 GiB (93%)
Writing library : x264 core 164 r3100 ed0f7a6
Encoding settings : cabac=1 / ref=4 / deblock=1:-2:-2 / analyse=0x1:0x131 / me=umh / subme=10 / psy=1 / psy_rd=1.00:0.20 / mixed_ref=1 / me_range=32 / chroma_me=1 / trellis=2 / 8x8dct=0 / cqm=0 / deadzone=21,11 / fast_pskip=0 / chroma_qp_offset=-3 / threads=24 / lookahead_threads=6 / sliced_threads=0 / nr=0 / decimate=1 / interlaced=0 / bluray_compat=0 / constrained_intra=0 / bframes=10 / b_pyramid=2 / b_adapt=2 / b_bias=0 / direct=3 / weightb=1 / open_gop=0 / weightp=2 / keyint=240 / keyint_min=23 / scenecut=40 / intra_refresh=0 / rc_lookahead=40 / rc=2pass / mbtree=0 / bitrate=5000 / ratetol=1.0 / qcomp=0.60 / qpmin=0 / qpmax=69 / qpstep=4 / cplxblur=20.0 / qblur=0.5 / vbv_maxrate=50000 / vbv_bufsize=62500 / nal_hrd=none / filler=0 / ip_ratio=1.40 / pb_ratio=1.30 / aq=1:0.80
Default : Yes
Forced : No
Color range : Limited
Color primaries : BT.709
Transfer characteristics : BT.709
Matrix coefficients : BT.709
Audio
ID : 2
Format : AC-3
Format/Info : Audio Coding 3
Commercial name : Dolby Digital
Codec ID : A_AC3
Duration : 1 h 34 min
Bit rate mode : Constant
Bit rate : 384 kb/s
Channel(s) : 6 channels
Channel layout : L R C LFE Ls Rs
Sampling rate : 48.0 kHz
Frame rate : 31.250 FPS (1536 SPF)
Compression mode : Lossy
Stream size : 260 MiB (7%)
Title : Дубляж (Paragraph Media)
Language : Russian
Service kind : Complete Main
Default : Yes
Forced : No
Menu
00:00:00.000 : en:Chapter 1
00:10:09.375 : en:Chapter 2
00:18:53.333 : en:Chapter 3
00:34:27.708 : en:Chapter 4
00:41:56.666 : en:Chapter 5
00:54:53.750 : en:Chapter 6
01:06:20.208 : en:Chapter 7
01:19:20.416 : en:Chapter 8
01:28:31.458 : en:Chapter 9
Скриншоты:
Все одноименные релизы в КлубеВремя раздачи: 24/7 (минимум до появления первых 10 скачавших)
[Профиль] [ЛС]
Показать сообщения:    
Ответить на тему

Текущее время: 28-Фев 21:20

Часовой пояс: UTC ± 0



Вы не можете начинать темы
Вы не можете отвечать на сообщения
Вы не можете редактировать свои сообщения
Вы не можете удалять свои сообщения
Вы не можете голосовать в опросах
Вы не можете прикреплять файлы к сообщениям
Вы не можете скачивать файлы

[  Время выполнения: 0,040 сек  |  MySQL: 0,007 сек (18%) · 7 запр.  |  GZIP выкл  |  Память: 422,29 KB / 1,73 MB / 1,34 MB  |  Лимит: 14 16 13  ]