Знакомство родителей / Maybe I Do (2023) BDRemux [H.264/1080p]

Ответить на тему
 
Автор Сообщение

admin ®

Пол: Не указан

Стаж: 4 месяца 23 дня

Сообщений: 10110

Создавать темы 30-Янв-2024 17:29

[Цитировать]

Знакомство родителей / Maybe I Do (2023) BDRemux [H.264/1080p]- Производство: США / Endeavor Content, Vincent Newman Entertainment
Жанр: мелодрама, комедия
Режиссер: Майкл Джейкобс
Актеры: Люк Брейси, Эмма Робертс, Дайан Китон, Ричард Гир, Уильям Х. Мэйси, Сьюзен Сарандон, Мези Этвуд, Кевин Д. Бентон, Сетти Брозвельт, Майкл Кострофф
Описание:
Молодая пара решает пожениться и, наконец, познакомить своих родителей друг с другом. Но на общей встрече оказывается, что родители не просто знакомы, а имеют множество пикантных секретов как друг от друга, так и от молодоженов.
Возраст: 16+ (зрителям, достигшим 16 лет)
Рейтинг MPAA: PG-13 (детям до 13 лет просмотр нежелателен)
Продолжительность: 01:34:41
Качество видео: BDRemux (1080p)
Перевод: Дублированный, профессиональный многоголосый
Язык озвучки: Русский, украинский, английский
Субтитры: Английские, испанские, финские, шведские, датские, норвежские
Видео: AVC/H.264, 1920x1080, ~19931 Kbps
Аудио #1: AC3, 6 ch, 384 Kbps - Русский (Dub, Paragraph Media)
Аудио #2: AC3, 6 ch, 448 Kbps - Русский (MVO, TVShows)
Аудио #3: AC3, 2 ch, 192 Kbps - Украинский (Дублированный)
Аудио #4: DTS, 6 ch, 1509 kbps - Английский (Oригинал)

MediaInfo:

Общее
Уникальный идентификатор : 219563405708079722105203634441790475882 (0xA52E5FAFAF3E514FA2270F3B3D38CE6A)
Полное имя : D:\NNM\Знакомство родителей\Maybe.I.Do.2023.REMUX.mkv
Формат : Matroska
Версия формата : Version 4
Размер файла : 15,1 Гбайт
Продолжительность : 1 ч. 34 м.
Режим общего битрейта : Переменный
Общий поток : 22,9 Мбит/сек
Дата кодирования : UTC 2023-08-21 14:10:43
Программа кодирования : mkvmerge v20.0.0 ('I Am The Sun') 64-bit
Библиотека кодирования : libebml v1.3.5 + libmatroska v1.4.8
Видео
Идентификатор : 1
Формат : AVC
Формат/Информация : Advanced Video Codec
Профиль формата : High@L4.1
Настройки формата : CABAC / 4 Ref Frames
Параметр CABAC формата : Да
Параметр RefFrames формата : 4 кадра
Идентификатор кодека : V_MPEG4/ISO/AVC
Продолжительность : 1 ч. 34 м.
Вид битрейта : Переменный
Битрейт : 20,0 Мбит/сек
Максимальный битрейт : 34,0 Мбит/сек
Ширина : 1 920 пикселей
Высота : 1 080 пикселей
Соотношение сторон : 16:9
Режим частоты кадров : Постоянный
Частота кадров : 24,000 кадра/сек
Цветовое пространство : YUV
Субдискретизация насыщенности : 4:2:0
Битовая глубина : 8 бит
Тип развёртки : Прогрессивная
Бит/(Пиксели*Кадры) : 0.402
Размер потока : 13,2 Гбайт (87%)
Библиотека кодирования : x264 core 155
Настройки программы : cabac=1 / ref=4 / deblock=1:0:0 / analyse=0x3:0x113 / me=umh / subme=8 / psy=1 / psy_rd=1.00:0.00 / mixed_ref=1 / me_range=16 / chroma_me=1 / trellis=1 / 8x8dct=1 / cqm=0 / deadzone=21,11 / fast_pskip=1 / chroma_qp_offset=-2 / threads=36 / lookahead_threads=6 / sliced_threads=0 / slices=4 / nr=0 / decimate=1 / interlaced=0 / bluray_compat=0 / stitchable=1 / constrained_intra=0 / bframes=3 / b_pyramid=0 / b_adapt=1 / b_bias=0 / direct=3 / weightb=1 / open_gop=0 / weightp=1 / keyint=24 / keyint_min=1 / scenecut=40 / intra_refresh=0 / rc_lookahead=24 / rc=2pass / mbtree=1 / bitrate=20000 / ratetol=1.0 / qcomp=0.60 / qpmin=0 / qpmax=69 / qpstep=4 / cplxblur=20.0 / qblur=0.5 / vbv_maxrate=34000 / vbv_bufsize=20000 / nal_hrd=vbr / filler=0 / ip_ratio=1.40 / aq=3:1.00
Язык : English
Default : Да
Forced : Нет
Аудио #1
Идентификатор : 2
Формат : AC-3
Формат/Информация : Audio Coding 3
Коммерческое название : Dolby Digital
Идентификатор кодека : A_AC3
Продолжительность : 1 ч. 34 м.
Вид битрейта : Постоянный
Битрейт : 384 Кбит/сек
Каналы : 6 каналов
Channel layout : L R C LFE Ls Rs
Частота : 48,0 КГц
Частота кадров : 31,250 кадров/сек (1536 SPF)
Метод сжатия : С потерями
Размер потока : 260 Мбайт (2%)
Заголовок : Dub Paragraph Media
Язык : Russian
Service kind : Complete Main
Default : Да
Forced : Нет
Аудио #2
Идентификатор : 3
Формат : AC-3
Формат/Информация : Audio Coding 3
Коммерческое название : Dolby Digital
Идентификатор кодека : A_AC3
Продолжительность : 1 ч. 34 м.
Вид битрейта : Постоянный
Битрейт : 448 Кбит/сек
Каналы : 6 каналов
Channel layout : L R C LFE Ls Rs
Частота : 48,0 КГц
Частота кадров : 31,250 кадров/сек (1536 SPF)
Метод сжатия : С потерями
Размер потока : 303 Мбайт (2%)
Заголовок : MVO TVShows
Язык : Russian
Service kind : Complete Main
Default : Нет
Forced : Нет
Аудио #3
Идентификатор : 4
Формат : AC-3
Формат/Информация : Audio Coding 3
Коммерческое название : Dolby Digital
Идентификатор кодека : A_AC3
Продолжительность : 1 ч. 34 м.
Вид битрейта : Постоянный
Битрейт : 192 Кбит/сек
Каналы : 2 канала
Channel layout : L R
Частота : 48,0 КГц
Частота кадров : 31,250 кадров/сек (1536 SPF)
Метод сжатия : С потерями
Размер потока : 130 Мбайт (1%)
Заголовок : Dub
Язык : Ukrainian
Service kind : Complete Main
Default : Нет
Forced : Нет
Аудио #4
Идентификатор : 5
Формат : DTS XLL
Формат/Информация : Digital Theater Systems
Коммерческое название : DTS-HD Master Audio
Идентификатор кодека : A_DTS
Продолжительность : 1 ч. 34 м.
Вид битрейта : Переменный
Битрейт : 1 929 Кбит/сек
Каналы : 6 каналов
Channel layout : C L R Ls Rs LFE
Частота : 48,0 КГц
Частота кадров : 93,750 кадра/сек (512 SPF)
Битовая глубина : 16 бит
Метод сжатия : Без потерь
Размер потока : 1,28 Гбайт (8%)
Язык : English
Default : Нет
Forced : Нет
Текст #1
Идентификатор : 6
Формат : UTF-8
Идентификатор кодека : S_TEXT/UTF8
Идентификатор кодека/Информация : UTF-8 Plain Text
Продолжительность : 1 ч. 25 м.
Битрейт : 75 бит/сек
Count of elements : 1546
Размер потока : 47,1 Кбайт (0%)
Язык : English
Default : Нет
Forced : Нет
Текст #2
Идентификатор : 7
Формат : UTF-8
Идентификатор кодека : S_TEXT/UTF8
Идентификатор кодека/Информация : UTF-8 Plain Text
Продолжительность : 1 ч. 23 м.
Битрейт : 73 бит/сек
Count of elements : 1189
Размер потока : 45,1 Кбайт (0%)
Язык : Spanish
Default : Нет
Forced : Нет
Текст #3
Идентификатор : 8
Формат : UTF-8
Идентификатор кодека : S_TEXT/UTF8
Идентификатор кодека/Информация : UTF-8 Plain Text
Продолжительность : 1 ч. 25 м.
Битрейт : 65 бит/сек
Count of elements : 864
Размер потока : 40,9 Кбайт (0%)
Язык : Finnish
Default : Нет
Forced : Нет
Текст #4
Идентификатор : 9
Формат : UTF-8
Идентификатор кодека : S_TEXT/UTF8
Идентификатор кодека/Информация : UTF-8 Plain Text
Продолжительность : 1 ч. 25 м.
Битрейт : 64 бит/сек
Count of elements : 860
Размер потока : 40,6 Кбайт (0%)
Язык : Swedish
Default : Нет
Forced : Нет
Текст #5
Идентификатор : 10
Формат : UTF-8
Идентификатор кодека : S_TEXT/UTF8
Идентификатор кодека/Информация : UTF-8 Plain Text
Продолжительность : 1 ч. 25 м.
Битрейт : 62 бит/сек
Count of elements : 863
Размер потока : 39,2 Кбайт (0%)
Язык : Danish
Default : Нет
Forced : Нет
Текст #6
Идентификатор : 11
Формат : UTF-8
Идентификатор кодека : S_TEXT/UTF8
Идентификатор кодека/Информация : UTF-8 Plain Text
Продолжительность : 1 ч. 25 м.
Битрейт : 63 бит/сек
Count of elements : 896
Размер потока : 40,0 Кбайт (0%)
Язык : Norwegian
Default : Нет
Forced : Нет
Меню
00:00:00.000 : en:Chapter 1
00:10:09.375 : en:Chapter 2
00:18:53.333 : en:Chapter 3
00:34:27.708 : en:Chapter 4
00:41:56.666 : en:Chapter 5
00:54:53.750 : en:Chapter 6
01:06:20.208 : en:Chapter 7
01:19:20.416 : en:Chapter 8
01:28:31.458 : en:Chapter 9
Скриншоты:
Все одноименные релизы в КлубеВремя раздачи: 24/7 (до 10-ти скачавших)
[Профиль] [ЛС]
Показать сообщения:    
Ответить на тему

Текущее время: 22-Фев 00:35

Часовой пояс: UTC ± 0



Вы не можете начинать темы
Вы не можете отвечать на сообщения
Вы не можете редактировать свои сообщения
Вы не можете удалять свои сообщения
Вы не можете голосовать в опросах
Вы не можете прикреплять файлы к сообщениям
Вы не можете скачивать файлы

[  Время выполнения: 0,026 сек  |  MySQL: 0,004 сек (14%) · 5 запр.  |  GZIP выкл  |  Память: 421,85 KB / 1,73 MB / 1,35 MB  |  Лимит: 17 17 15  ]