Потемнело / The Blackening (2022) BDRemux [H.264/1080p] [MVO]

Ответить на тему
 
Автор Сообщение

admin ®

Пол: Не указан

Стаж: 5 месяца

Сообщений: 10110

Создавать темы 30-Янв-2024 17:28

[Цитировать]

Потемнело / The Blackening (2022) BDRemux [H.264/1080p]- Производство: США, Catchlight Studios, Lionsgate, Media Rights Capital, MRC Film, Story Company
Жанр: ужасы, комедия
Режиссер: Тим Стори
Продюсер: Шарла Самптер Бриджетт, Марсеи А. Браун
Актеры: Грейс Байерс, Жермен Фаулер, Мелвин Грегг, Икс Майо, Дуэйн Перкинс, Антуанетта Робертсон, Синква Уоллс, Джей Фэро, Ивонн Орджи, Дидрих Бадер
Описание: Группа бывших сокурсников-афроамериканцев собирается на вечеринку в шикарный лесной дом. По прибытии они не обнаруживают прибывшую заранее парочку, зато находят подозрительную игровую комнату, а в ней — крайне нетолерантную настольную игру. Внезапно двери блокируются, и теперь приятелям придётся отвечать на каверзные вопросы викторины по чёрной истории, иначе кто-то из них умрёт.
Рейтинг MPAA: R (Лицам до 17 обязательно присутствие взрослых)
Релиз от: Soft-Torrent - торрент игры программы фильмы книги скачать
Продолжительность: 01:36:57
Качество видео: BDRemux 1080p
Перевод: Профессиональный многоголосый (TVShows), Авторский (М. Яроцкий 18+)
Язык озвучки: Русский, Английский
Субтитры: Русские (Full), Английские (Full)
Видео: AVC/H.264, 1920x1080, 34.7 Mbps, 23.976 fps
Аудио 1: AC-3, 6 ch, 384 Kbps | Русский MVO TVShows
Аудио 2: E-AC-3, 6 ch, 640 Kbps | Русский AVO М. Яроцкий 18+
Аудио 3: TrueHD, 8.0 ch, 3545 Kbps | Английский
Аудио 4: AC-3, 6 ch, 640 Kbps | Английский

Mediainfo:

General
Unique ID : 23936267501447558733317880125752103904 (0x1201F51A618085586A44506AB9B053E0)
Complete name : /Volumes/Promise Pegasus/The.Blackening.2022.BDRemux.1080p.mkv
Format : Matroska
Format version : Version 4
File size : 27.0 GiB
Duration : 1 h 36 min
Overall bit rate mode : Variable
Overall bit rate : 39.9 Mb/s
Frame rate : 23.976 FPS
Movie name : The Blackening 2022 BDRemux 1080p
Encoded date : 2023-08-21 23:10:34 UTC
Writing application : mkvmerge v73.0.0 ('25 or 6 to 4') 64-bit
Writing library : libebml v1.4.4 + libmatroska v1.7.1
Video
ID : 1
Format : AVC
Format/Info : Advanced Video Codec
Format profile : High@L4.1
Format settings : CABAC / 4 Ref Frames
Format settings, CABAC : Yes
Format settings, Reference frames : 4 frames
Codec ID : V_MPEG4/ISO/AVC
Duration : 1 h 36 min
Bit rate mode : Variable
Bit rate : 34.7 Mb/s
Maximum bit rate : 37.0 Mb/s
Width : 1 920 pixels
Height : 1 080 pixels
Display aspect ratio : 16:9
Frame rate mode : Constant
Frame rate : 23.976 (24000/1001) FPS
Color space : YUV
Chroma subsampling : 4:2:0
Bit depth : 8 bits
Scan type : Progressive
Bits/(Pixel*Frame) : 0.697
Stream size : 23.5 GiB (87%)
Language : English
Default : Yes
Forced : No
Audio #1
ID : 2
Format : AC-3
Format/Info : Audio Coding 3
Commercial name : Dolby Digital
Codec ID : A_AC3
Duration : 1 h 36 min
Bit rate mode : Constant
Bit rate : 384 kb/s
Channel(s) : 6 channels
Channel layout : L R C LFE Ls Rs
Sampling rate : 48.0 kHz
Frame rate : 31.250 FPS (1536 SPF)
Compression mode : Lossy
Stream size : 266 MiB (1%)
Title : Russian MVO TVShows
Language : Russian
Service kind : Complete Main
Default : Yes
Forced : No
Audio #2
ID : 3
Format : E-AC-3
Format/Info : Enhanced AC-3
Commercial name : Dolby Digital Plus
Codec ID : A_EAC3
Duration : 1 h 36 min
Bit rate mode : Constant
Bit rate : 640 kb/s
Channel(s) : 6 channels
Channel layout : L R C LFE Ls Rs
Sampling rate : 48.0 kHz
Frame rate : 31.250 FPS (1536 SPF)
Compression mode : Lossy
Stream size : 444 MiB (2%)
Title : AVO М.Яроцкий 18+
Language : Russian
Service kind : Complete Main
Default : No
Forced : No
Audio #3
ID : 4
Format : MLP FBA 16-ch
Format/Info : Meridian Lossless Packing FBA with 16-channel presentation
Commercial name : Dolby TrueHD with Dolby Atmos
Codec ID : A_TRUEHD
Duration : 1 h 36 min
Bit rate mode : Variable
Bit rate : 3 545 kb/s
Maximum bit rate : 5 607 kb/s
Channel(s) : 8 channels
Channel layout : L R C LFE Ls Rs Lb Rb
Sampling rate : 48.0 kHz
Frame rate : 1 200.000 FPS (40 SPF)
Compression mode : Lossless
Stream size : 2.40 GiB (9%)
Title : English Original TrueHD
Language : English
Default : No
Forced : No
Number of dynamic objects : 15
Bed channel count : 1 channel
Bed channel configuration : LFE
Audio #4
ID : 5
Format : AC-3
Format/Info : Audio Coding 3
Commercial name : Dolby Digital
Codec ID : A_AC3
Duration : 1 h 36 min
Bit rate mode : Constant
Bit rate : 640 kb/s
Channel(s) : 6 channels
Channel layout : L R C LFE Ls Rs
Sampling rate : 48.0 kHz
Frame rate : 31.250 FPS (1536 SPF)
Compression mode : Lossy
Stream size : 444 MiB (2%)
Title : English Original
Language : English
Service kind : Complete Main
Default : No
Forced : No
Text #1
ID : 6
Format : UTF-8
Codec ID : S_TEXT/UTF8
Codec ID/Info : UTF-8 Plain Text
Duration : 1 h 32 min
Bit rate : 128 b/s
Frame rate : 0.300 FPS
Count of elements : 1665
Stream size : 86.9 KiB (0%)
Title : Russian full
Language : Russian
Default : No
Forced : No
Text #2
ID : 7
Format : UTF-8
Codec ID : S_TEXT/UTF8
Codec ID/Info : UTF-8 Plain Text
Duration : 1 h 32 min
Bit rate : 87 b/s
Frame rate : 0.317 FPS
Count of elements : 1752
Stream size : 59.2 KiB (0%)
Title : English full
Language : English
Default : No
Forced : No
Menu
00:00:00.000 : en:Chapter 1
00:08:25.838 : en:Chapter 2
00:15:36.936 : en:Chapter 3
00:20:35.859 : en:Chapter 4
00:25:54.302 : en:Chapter 5
00:30:56.354 : en:Chapter 6
00:38:04.365 : en:Chapter 7
00:45:43.615 : en:Chapter 8
00:51:37.719 : en:Chapter 9
00:57:56.097 : en:Chapter 10
00:59:12.382 : en:Chapter 11
01:04:18.980 : en:Chapter 12
01:10:07.203 : en:Chapter 13
01:19:25.927 : en:Chapter 14
01:24:17.844 : en:Chapter 15
01:31:29.650 : en:Chapter 16
Скриншоты:
Все одноименные релизы в КлубеВремя раздачи: 24/7 (круглосуточно) (до появления первых 3-5 скачавших)
[Профиль] [ЛС]
Показать сообщения:    
Ответить на тему

Текущее время: 28-Фев 23:51

Часовой пояс: UTC ± 0



Вы не можете начинать темы
Вы не можете отвечать на сообщения
Вы не можете редактировать свои сообщения
Вы не можете удалять свои сообщения
Вы не можете голосовать в опросах
Вы не можете прикреплять файлы к сообщениям
Вы не можете скачивать файлы

[  Время выполнения: 0,037 сек  |  MySQL: 0,002 сек (7%) · 3 запр.  |  GZIP выкл  |  Память: 422,29 KB / 1,75 MB / 1,37 MB  |  Лимит: 9 9 9  ]