Без обид / No Hard Feelings (2023) WEB-DL [H.265/2160p] [4K, HDR10, Dolby Vision, Profile 8, 10-bit]

Ответить на тему
 
Автор Сообщение

admin ®

Пол: Не указан

Стаж: 4 месяца 27 дня

Сообщений: 10110

Создавать темы 30-Янв-2024 17:28

[Цитировать]

Без обид / No Hard Feelings (2023) WEB-DL [H.265/2160p] [4K, HDR10, Dolby Vision, Profile 8, 10-bit] - Производство: США / Excellent Cadaver, Odenkirk Provissiero Entertainment, Sony Pictures Entertainment (SPE)
Жанр: комедия, мелодрама
Режиссер: Джин Ступницки
Актеры: Дженнифер Лоуренс, Эндрю Барт Фельдман, Лаура Бенанти, Мэттью Бродерик, Натали Моралес, Скотт Макартур, Эбон Мосс-Бакрак, Кайл Муни, Хасан Минхадж, Jordan Mendoza
Описание:
Мэдди 32 года, она всю жизнь прожила в Монтоке — курортном местечке недалеко от Нью-Йорка. Богачи скупают тут недвижимость, налоги постоянно растут, а девушка пытается сохранить доставшийся в наследство от матери дом, поэтому оказывается по уши в долгах. Лишившись автомобиля и возможности таксовать, она в обмен на машину решает помочь богатеньким родителям, которые волнуются, что их 18-летнему сыну скоро в колледж, а он всё никак не вылезет из своей раковины. Задача Мэдди — лишить парня девственности, но сделать это оказывается не так-то просто.
Возраст: 18+ (зрителям, достигшим 18 лет. запрещено для детей)
Рейтинг MPAA: R (лицам до 17 лет обязательно присутствие взрослого)
Продолжительность: 01:43:22
Качество видео: WEB-DL
Перевод: Дублированный (MovieDalen, LeDoyen), Многоголосый профессиональный (TVShows, Jaskier)
Язык озвучки: русский, украинский, английский
Субтитры: русские (forced, full), украинские (forced, full), английские (forced, full, SDH)
Видео: HEVC/H.265, 3840x2160, 24.8 Mbps
Аудио 1: АС3, 6 ch, 384 Kbps - русский (Dub, MovieDalen)
Аудио 2: АС3, 6 ch, 384 Kbps - русский (MVO, TVShows)
Аудио 3: АС3, 6 ch, 384 Kbps - русский (MVO, Jaskier) без цензуры 18+
Аудио 4: АС3, 6 ch, 384 Kbps - украинский (Dub, LeDoyen)
Аудио 5: Е-АС3, 6 ch, 640 Kbps - английский

MediaInfo:

General
Unique ID : 75180946678721747786679959356299804856 (0x388F52DA7005911CF7B44A5084DC00B8)
Complete name : H:\UHD\Без обид.2023.WEB-DL.2160p.mkv
Format : Matroska
Format version : Version 4
File size : 19.5 GiB
Duration : 1 h 43 min
Overall bit rate : 26.8 Mb/s
Frame rate : 23.976 FPS
Encoded date : 2023-08-21 18:41:42 UTC
Writing application : mkvmerge v79.0 ('Funeral Pyres') 64-bit
Writing library : libebml v1.4.4 + libmatroska v1.7.1
Attachments : poster.jpg
Video
ID : 1
Format : HEVC
Format/Info : High Efficiency Video Coding
Format profile : Main 10@L5@High
HDR format : Dolby Vision, Version 1.0, dvhe.08.06, BL+RPU, HDR10 compatible / SMPTE ST 2086, HDR10 compatible
Codec ID : V_MPEGH/ISO/HEVC
Duration : 1 h 43 min
Bit rate : 24.8 Mb/s
Width : 3 840 pixels
Height : 2 160 pixels
Display aspect ratio : 16:9
Frame rate mode : Constant
Frame rate : 23.976 (24000/1001) FPS
Color space : YUV
Chroma subsampling : 4:2:0 (Type 2)
Bit depth : 10 bits
Bits/(Pixel*Frame) : 0.124
Stream size : 17.9 GiB (92%)
Default : Yes
Forced : No
Color range : Limited
Color primaries : BT.2020
Transfer characteristics : PQ
Matrix coefficients : BT.2020 non-constant
Mastering display color primaries : BT.2020
Mastering display luminance : min: 0.0050 cd/m2, max: 4000 cd/m2
Maximum Content Light Level : 707 cd/m2
Maximum Frame-Average Light Level : 173 cd/m2
Audio #1
ID : 2
Format : AC-3
Format/Info : Audio Coding 3
Commercial name : Dolby Digital
Codec ID : A_AC3
Duration : 1 h 43 min
Bit rate mode : Constant
Bit rate : 384 kb/s
Channel(s) : 6 channels
Channel layout : L R C LFE Ls Rs
Sampling rate : 48.0 kHz
Frame rate : 31.250 FPS (1536 SPF)
Compression mode : Lossy
Stream size : 284 MiB (1%)
Title : Dub, MovieDalen
Language : Russian
Service kind : Complete Main
Default : Yes
Forced : No
Audio #2
ID : 3
Format : AC-3
Format/Info : Audio Coding 3
Commercial name : Dolby Digital
Codec ID : A_AC3
Duration : 1 h 43 min
Bit rate mode : Constant
Bit rate : 384 kb/s
Channel(s) : 6 channels
Channel layout : L R C LFE Ls Rs
Sampling rate : 48.0 kHz
Frame rate : 31.250 FPS (1536 SPF)
Compression mode : Lossy
Stream size : 285 MiB (1%)
Title : MVO, TVShows
Language : Russian
Service kind : Complete Main
Default : No
Forced : No
Audio #3
ID : 4
Format : AC-3
Format/Info : Audio Coding 3
Commercial name : Dolby Digital
Codec ID : A_AC3
Duration : 1 h 43 min
Bit rate mode : Constant
Bit rate : 384 kb/s
Channel(s) : 6 channels
Channel layout : L R C LFE Ls Rs
Sampling rate : 48.0 kHz
Frame rate : 31.250 FPS (1536 SPF)
Compression mode : Lossy
Stream size : 284 MiB (1%)
Title : MVO, Jaskier (ненормативная лексика)
Language : Russian
Service kind : Complete Main
Default : No
Forced : No
Audio #4
ID : 5
Format : E-AC-3
Format/Info : Enhanced AC-3
Commercial name : Dolby Digital Plus
Codec ID : A_EAC3
Duration : 1 h 43 min
Bit rate mode : Constant
Bit rate : 384 kb/s
Channel(s) : 6 channels
Channel layout : L R C LFE Ls Rs
Sampling rate : 48.0 kHz
Frame rate : 31.250 FPS (1536 SPF)
Compression mode : Lossy
Stream size : 284 MiB (1%)
Title : Dub, LeDoyen
Language : Ukrainian
Service kind : Complete Main
Default : No
Forced : No
Audio #5
ID : 6
Format : E-AC-3
Format/Info : Enhanced AC-3
Commercial name : Dolby Digital Plus
Codec ID : A_EAC3
Duration : 1 h 43 min
Bit rate mode : Constant
Bit rate : 640 kb/s
Channel(s) : 6 channels
Channel layout : L R C LFE Ls Rs
Sampling rate : 48.0 kHz
Frame rate : 31.250 FPS (1536 SPF)
Compression mode : Lossy
Stream size : 475 MiB (2%)
Language : English (US)
Service kind : Complete Main
Default : No
Forced : No
Text #1
ID : 7
Format : UTF-8
Codec ID : S_TEXT/UTF8
Codec ID/Info : UTF-8 Plain Text
Duration : 1 h 26 min
Bit rate : 0 b/s
Frame rate : 0.003 FPS
Count of elements : 14
Stream size : 454 Bytes (0%)
Title : forced
Language : Russian
Default : Yes
Forced : No
Text #2
ID : 8
Format : UTF-8
Codec ID : S_TEXT/UTF8
Codec ID/Info : UTF-8 Plain Text
Duration : 1 h 42 min
Bit rate : 96 b/s
Frame rate : 0.253 FPS
Count of elements : 1549
Stream size : 72.1 KiB (0%)
Title : full
Language : Russian
Default : No
Forced : No
Text #3
ID : 9
Format : UTF-8
Codec ID : S_TEXT/UTF8
Codec ID/Info : UTF-8 Plain Text
Duration : 1 h 42 min
Bit rate : 0 b/s
Frame rate : 0.002 FPS
Count of elements : 14
Stream size : 440 Bytes (0%)
Title : forced
Language : Ukrainian
Default : No
Forced : No
Text #4
ID : 10
Format : UTF-8
Codec ID : S_TEXT/UTF8
Codec ID/Info : UTF-8 Plain Text
Duration : 1 h 42 min
Bit rate : 93 b/s
Frame rate : 0.252 FPS
Count of elements : 1546
Stream size : 70.1 KiB (0%)
Title : full
Language : Ukrainian
Default : No
Forced : No
Text #5
ID : 11
Format : UTF-8
Codec ID : S_TEXT/UTF8
Codec ID/Info : UTF-8 Plain Text
Duration : 4 s 4 ms
Bit rate : 71 b/s
Frame rate : 0.500 FPS
Count of elements : 2
Stream size : 36.0 Bytes (0%)
Title : forced
Language : English
Default : No
Forced : No
Text #6
ID : 12
Format : UTF-8
Codec ID : S_TEXT/UTF8
Codec ID/Info : UTF-8 Plain Text
Duration : 1 h 39 min
Bit rate : 73 b/s
Frame rate : 0.281 FPS
Count of elements : 1678
Stream size : 53.6 KiB (0%)
Title : full
Language : English
Default : No
Forced : No
Text #7
ID : 13
Format : UTF-8
Codec ID : S_TEXT/UTF8
Codec ID/Info : UTF-8 Plain Text
Duration : 1 h 40 min
Bit rate : 77 b/s
Frame rate : 0.299 FPS
Count of elements : 1810
Stream size : 57.4 KiB (0%)
Title : SDH
Language : English
Default : No
Forced : No
Скриншоты:
Все одноименные релизы в КлубеВремя раздачи: 24/7 (мультитрекер)
[Профиль] [ЛС]
Показать сообщения:    
Ответить на тему

Текущее время: 25-Фев 17:54

Часовой пояс: UTC ± 0



Вы не можете начинать темы
Вы не можете отвечать на сообщения
Вы не можете редактировать свои сообщения
Вы не можете удалять свои сообщения
Вы не можете голосовать в опросах
Вы не можете прикреплять файлы к сообщениям
Вы не можете скачивать файлы

[  Время выполнения: 0,045 сек  |  MySQL: 0,004 сек (8%) · 3 запр.  |  GZIP выкл  |  Память: 422,29 KB / 1,76 MB / 1,38 MB  |  Лимит: 9 9 9  ]