Без обид / No Hard Feelings (2023) BDRip [H.264/720p]

Ответить на тему
 
Автор Сообщение

admin ®

Пол: Не указан

Стаж: 5 месяца 1 день

Сообщений: 10110

Создавать темы 30-Янв-2024 17:28

[Цитировать]

Без обид / No Hard Feelings (2023) BDRip [H.264/720p] - Производство: США / Excellent Cadaver, Odenkirk Provissiero Entertainment, Sony Pictures Entertainment (SPE)
Жанр: комедия, мелодрама
Режиссер: Джин Ступницки
Актеры: Дженнифер Лоуренс, Эндрю Барт Фельдман, Лаура Бенанти, Мэттью Бродерик, Натали Моралес, Скотт Макартур, Эбон Мосс-Бакрак, Кайл Муни, Хасан Минхадж, Jordan Mendoza
Описание:
Мэдди 32 года, она всю жизнь прожила в Монтоке — курортном местечке недалеко от Нью-Йорка. Богачи скупают тут недвижимость, налоги постоянно растут, а девушка пытается сохранить доставшийся в наследство от матери дом, поэтому оказывается по уши в долгах. Лишившись автомобиля и возможности таксовать, она в обмен на машину решает помочь богатеньким родителям, которые волнуются, что их 18-летнему сыну скоро в колледж, а он всё никак не вылезет из своей раковины. Задача Мэдди — лишить парня девственности, но сделать это оказывается не так-то просто.
Возраст: 18+ (зрителям, достигшим 18 лет. запрещено для детей)
Рейтинг MPAA: R (лицам до 17 лет обязательно присутствие взрослого)
Релиз от: селезень
Продолжительность: 01:43:22
Качество видео: BDRip
Перевод: Дублированный (MovieDalen, LeDoyen), Многоголосый профессиональный (TVShows, Jaskier)
Язык озвучки: русский, украинский, английский
Субтитры: русские (forced, full), украинские (forced, full), английские (forced, full, SDH)
Видео: AVC/H.264, 1280x692, 5677 Кbps
Аудио 1: АС3, 6 ch, 384 Kbps - русский (Dub, MovieDalen)
Аудио 2: АС3, 6 ch, 384 Kbps - русский (MVO, TVShows)
Аудио 3: АС3, 6 ch, 384 Kbps - русский (MVO, Jaskier) без цензуры 18+
Аудио 4: АС3, 6 ch, 384 Kbps - украинский (Dub, LeDoyen)
Аудио 5: АС3, 6 ch, 640 Kbps - английский

MediaInfo:

General
Unique ID : 62485617759624965646227418106689212854 (0x2F024ACFD390EC83272428FB482BD1B6)
Complete name : G:VideoGNo.Hard.Feelings.2023.D.MVO.BDRip.720p.seleZen.mkv
Format : Matroska
Format version : Version 4
File size : 5.67 GiB
Duration : 1 h 43 min
Overall bit rate : 7 824 kb/s
Frame rate : 23.976 FPS
Movie name : No Hard Feelings 2023 from seleZen
Encoded date : 2023-08-23 01:40:35 UTC
Writing application : mkvmerge v63.0.0 ('Everything') 64-bit
Writing library : libebml v1.4.2 + libmatroska v1.6.4
Cover : Yes
Attachments : cover.jpg / small_cover.jpg
Video
ID : 1
Format : AVC
Format/Info : Advanced Video Codec
Format profile : High@L4.1
Format settings : CABAC / 9 Ref Frames
Format settings, CABAC : Yes
Format settings, Reference : 9 frames
Codec ID : V_MPEG4/ISO/AVC
Duration : 1 h 43 min
Bit rate : 5 677 kb/s
Width : 1 280 pixels
Height : 692 pixels
Display aspect ratio : 1.85:1
Frame rate mode : Constant
Frame rate : 23.976 (24000/1001) FPS
Color space : YUV
Chroma subsampling : 4:2:0
Bit depth : 8 bits
Scan type : Progressive
Bits/(Pixel*Frame) : 0.267
Stream size : 4.10 GiB (72%)
Title : MTeam
Writing library : x264 core 157 r2938 2b00a84 TnP@MTeam Mod
Encoding settings : cabac=1 / ref=9 / deblock=1:-3:-3 / analyse=0x3:0x133 / me=umh / subme=10 / psy=1 / psy_rd=1.05:0.00 / mixed_ref=1 / me_range=32 / chroma_me=1 / trellis=2 / 8x8dct=1 / cqm=0 / deadzone=21,11 / fast_pskip=0 / chroma_qp_offset=-2 / threads=12 / lookahead_threads=2 / sliced_threads=0 / nr=0 / decimate=0 / interlaced=0 / bluray_compat=0 / constrained_intra=0 / bframes=8 / b_pyramid=2 / b_adapt=2 / b_bias=0 / direct=3 / weightb=1 / open_gop=0 / weightp=2 / keyint=250 / keyint_min=24 / scenecut=40 / intra_refresh=0 / rc_lookahead=250 / rc=crf / mbtree=0 / crf=16.8 / qcomp=0.60 / qpmin=0 / qpmax=69 / qpstep=4 / vbv_maxrate=62500 / vbv_bufsize=78125 / crf_max=0.0 / nal_hrd=none / filler=0 / ip_ratio=1.30 / pb_ratio=1.20 / aq=3:0.80
Language : English
Default : Yes
Forced : No
Color range : Limited
Color primaries : BT.709
Matrix coefficients : BT.709
Audio #1
ID : 2
Format : AC-3
Format/Info : Audio Coding 3
Commercial name : Dolby Digital
Codec ID : A_AC3
Duration : 1 h 43 min
Bit rate mode : Constant
Bit rate : 384 kb/s
Channel(s) : 6 channels
Channel layout : L R C LFE Ls Rs
Sampling rate : 48.0 kHz
Frame rate : 31.250 FPS (1536 SPF)
Compression mode : Lossy
Stream size : 284 MiB (5%)
Title : Dub [MovieDalen]
Language : Russian
Service kind : Complete Main
Default : Yes
Forced : Yes
Audio #2
ID : 3
Format : AC-3
Format/Info : Audio Coding 3
Commercial name : Dolby Digital
Codec ID : A_AC3
Duration : 1 h 43 min
Bit rate mode : Constant
Bit rate : 384 kb/s
Channel(s) : 6 channels
Channel layout : L R C LFE Ls Rs
Sampling rate : 48.0 kHz
Frame rate : 31.250 FPS (1536 SPF)
Compression mode : Lossy
Stream size : 285 MiB (5%)
Title : MVO [TVShows]
Language : Russian
Service kind : Complete Main
Default : No
Forced : No
Audio #3
ID : 4
Format : AC-3
Format/Info : Audio Coding 3
Commercial name : Dolby Digital
Codec ID : A_AC3
Duration : 1 h 43 min
Bit rate mode : Constant
Bit rate : 384 kb/s
Channel(s) : 6 channels
Channel layout : L R C LFE Ls Rs
Sampling rate : 48.0 kHz
Frame rate : 31.250 FPS (1536 SPF)
Compression mode : Lossy
Stream size : 284 MiB (5%)
Title : MVO [Jaskier] 18 +
Language : Russian
Service kind : Complete Main
Default : No
Forced : No
Audio #4
ID : 5
Format : AC-3
Format/Info : Audio Coding 3
Commercial name : Dolby Digital
Codec ID : A_AC3
Duration : 1 h 43 min
Bit rate mode : Constant
Bit rate : 384 kb/s
Channel(s) : 6 channels
Channel layout : L R C LFE Ls Rs
Sampling rate : 48.0 kHz
Frame rate : 31.250 FPS (1536 SPF)
Compression mode : Lossy
Stream size : 284 MiB (5%)
Title : Dub [LeDoyen]
Language : Ukrainian
Service kind : Complete Main
Default : No
Forced : No
Audio #5
ID : 6
Format : AC-3
Format/Info : Audio Coding 3
Commercial name : Dolby Digital
Codec ID : A_AC3
Duration : 1 h 43 min
Bit rate mode : Constant
Bit rate : 640 kb/s
Channel(s) : 6 channels
Channel layout : L R C LFE Ls Rs
Sampling rate : 48.0 kHz
Frame rate : 31.250 FPS (1536 SPF)
Compression mode : Lossy
Stream size : 473 MiB (8%)
Title : Original
Language : English
Service kind : Complete Main
Default : No
Forced : No
Text #1
ID : 7
Format : UTF-8
Codec ID : S_TEXT/UTF8
Codec ID/Info : UTF-8 Plain Text
Duration : 1 h 26 min
Bit rate : 0 b/s
Frame rate : 0.003 FPS
Count of elements : 14
Stream size : 454 Bytes (0%)
Title : Forced
Language : Russian
Default : Yes
Forced : Yes
Text #2
ID : 8
Format : UTF-8
Codec ID : S_TEXT/UTF8
Codec ID/Info : UTF-8 Plain Text
Duration : 1 h 42 min
Bit rate : 96 b/s
Frame rate : 0.253 FPS
Count of elements : 1549
Stream size : 72.1 KiB (0%)
Title : Full
Language : Russian
Default : No
Forced : No
Text #3
ID : 9
Format : UTF-8
Codec ID : S_TEXT/UTF8
Codec ID/Info : UTF-8 Plain Text
Duration : 1 h 42 min
Bit rate : 0 b/s
Frame rate : 0.002 FPS
Count of elements : 14
Stream size : 440 Bytes (0%)
Title : Forced
Language : Ukrainian
Default : No
Forced : No
Text #4
ID : 10
Format : UTF-8
Codec ID : S_TEXT/UTF8
Codec ID/Info : UTF-8 Plain Text
Duration : 1 h 42 min
Bit rate : 93 b/s
Frame rate : 0.252 FPS
Count of elements : 1546
Stream size : 70.1 KiB (0%)
Title : Full
Language : Ukrainian
Default : No
Forced : No
Text #5
ID : 11
Format : UTF-8
Codec ID : S_TEXT/UTF8
Codec ID/Info : UTF-8 Plain Text
Duration : 4 s 4 ms
Bit rate : 71 b/s
Frame rate : 0.500 FPS
Count of elements : 2
Stream size : 36.0 Bytes (0%)
Title : Forced
Language : English (US)
Default : No
Forced : No
Text #6
ID : 12
Format : UTF-8
Codec ID : S_TEXT/UTF8
Codec ID/Info : UTF-8 Plain Text
Duration : 1 h 35 min
Bit rate : 67 b/s
Frame rate : 0.266 FPS
Count of elements : 1527
Stream size : 47.2 KiB (0%)
Title : Full
Language : English (GB)
Default : No
Forced : No
Text #7
ID : 13
Format : UTF-8
Codec ID : S_TEXT/UTF8
Codec ID/Info : UTF-8 Plain Text
Duration : 1 h 40 min
Bit rate : 77 b/s
Frame rate : 0.299 FPS
Count of elements : 1810
Stream size : 57.5 KiB (0%)
Title : SDH
Language : English (US)
Default : No
Forced : No
Menu
00:00:00.000 : en:Chapter 1
00:06:45.613 : en:Chapter 2
00:12:36.423 : en:Chapter 3
00:18:26.356 : en:Chapter 4
00:27:05.959 : en:Chapter 5
00:33:23.086 : en:Chapter 6
00:39:58.273 : en:Chapter 7
00:44:47.729 : en:Chapter 8
00:52:06.376 : en:Chapter 9
01:01:06.416 : en:Chapter 10
01:06:52.303 : en:Chapter 11
01:11:07.934 : en:Chapter 12
01:20:21.112 : en:Chapter 13
01:23:51.156 : en:Chapter 14
01:32:26.796 : en:Chapter 15
01:35:05.121 : en:Chapter 16
Скриншоты:
Все одноименные релизы в КлубеВремя раздачи: 24/7 (мультитрекер)
[Профиль] [ЛС]
Показать сообщения:    
Ответить на тему

Текущее время: 29-Фев 11:42

Часовой пояс: UTC ± 0



Вы не можете начинать темы
Вы не можете отвечать на сообщения
Вы не можете редактировать свои сообщения
Вы не можете удалять свои сообщения
Вы не можете голосовать в опросах
Вы не можете прикреплять файлы к сообщениям
Вы не можете скачивать файлы

[  Время выполнения: 0,044 сек  |  MySQL: 0,004 сек (9%) · 5 запр.  |  GZIP выкл  |  Память: 422,29 KB / 1,75 MB / 1,37 MB  |  Лимит: 11 11 11  ]