10 дней без мамы в Куршевеле / 10 jours encore sans maman (2023) WEB-DL [H.264/1080p]

Ответить на тему
 
Автор Сообщение

admin ®

Пол: Не указан

Стаж: 4 месяца 23 дня

Сообщений: 10110

Создавать темы 30-Янв-2024 17:28

[Цитировать]

10 дней без мамы в Куршевеле / 10 jours encore sans maman (2023) WEB-DL - Производство: Франция / Canal+, Soyouz Films, StudioCanal, M6 Films
Жанр: комедия
Режиссер: Людовик Бернард
Актеры: Франк Дюбоск, Ор Атика, Алексис Михалик, Аннелиз Эм, Элена Ногуэрра, Свон Жулин, Виолетт Гийон, Илан Дебрабан, Ивэн Патюрель, Венсан Мартен
Описание:
После увольнения с работы Антуан решает остаться дома, чтобы заботиться о 4 детях, пока его жена Изабель строит карьеру юриста. За два года в декретном отпуске мужчина выбился из сил, оценив, насколько это тяжелый труд — ухаживать за семьей. Когда семейство собирается в 10-дневный отпуск в горы, Антуан рад, что наконец-то сможет немного отдохнуть. Но накануне отъезда Изабель сообщает ему, что не сможет поехать. Отцу предстоит провести еще 10 дней без мамы вместе с 4 непоседливыми детьми.
Возраст: 12+ (зрителям, достигшим 12 лет)
Релиз от: селезень
Продолжительность: 01:36:07
Качество видео: WEB-DL
Перевод: Дублированный (Pride Production)
Язык озвучки: Русский, Французский
Субтитры: отсутствуют
Видео: AVC/H.264, 1914x800, 6578 Kbps
Аудио 1: AC3, 6 ch, 448 Kbps, русский
Аудио 2: AC3, 6 ch, 384 Kbps, французский

MediaInfo:

General
Unique ID : 108555278044666071227154806093117703137 (0x51AAFC6E7A331DFD3D4030FCB364C3E1)
Complete name : G:VideoG10.jours.encore.sans.maman.2023.WEB-DL.1080p.seleZen.mkv
Format : Matroska
Format version : Version 4
File size : 4.98 GiB
Duration : 1 h 36 min
Overall bit rate : 7 412 kb/s
Frame rate : 24.000 FPS
Movie name : 10 jours encore sans maman 2023 from seleZen
Encoded date : 2023-08-23 02:17:34 UTC
Writing application : mkvmerge v63.0.0 ('Everything') 64-bit
Writing library : libebml v1.4.2 + libmatroska v1.6.4
Video
ID : 1
Format : AVC
Format/Info : Advanced Video Codec
Format profile : High@L4
Format settings : CABAC / 5 Ref Frames
Format settings, CABAC : Yes
Format settings, Reference : 5 frames
Codec ID : V_MPEG4/ISO/AVC
Duration : 1 h 36 min
Bit rate : 6 578 kb/s
Width : 1 914 pixels
Height : 800 pixels
Display aspect ratio : 2.40:1
Original display aspect rat : 2.40:1
Frame rate mode : Constant
Frame rate : 24.000 FPS
Color space : YUV
Chroma subsampling : 4:2:0
Bit depth : 8 bits
Scan type : Progressive
Bits/(Pixel*Frame) : 0.179
Stream size : 4.42 GiB (89%)
Language : English
Default : Yes
Forced : No
Color range : Limited
Color primaries : BT.709
Transfer characteristics : BT.709
Matrix coefficients : BT.709
Audio #1
ID : 2
Format : AC-3
Format/Info : Audio Coding 3
Commercial name : Dolby Digital
Codec ID : A_AC3
Duration : 1 h 36 min
Bit rate mode : Constant
Bit rate : 448 kb/s
Channel(s) : 6 channels
Channel layout : L R C LFE Ls Rs
Sampling rate : 48.0 kHz
Frame rate : 31.250 FPS (1536 SPF)
Compression mode : Lossy
Stream size : 308 MiB (6%)
Title : Dub
Language : Russian
Service kind : Complete Main
Default : Yes
Forced : Yes
Audio #2
ID : 3
Format : AC-3
Format/Info : Audio Coding 3
Commercial name : Dolby Digital
Codec ID : A_AC3
Duration : 1 h 36 min
Bit rate mode : Constant
Bit rate : 384 kb/s
Channel(s) : 6 channels
Channel layout : L R C LFE Ls Rs
Sampling rate : 48.0 kHz
Frame rate : 31.250 FPS (1536 SPF)
Compression mode : Lossy
Stream size : 264 MiB (5%)
Title : Original
Language : French
Service kind : Complete Main
Default : No
Forced : No
Скриншоты:
Все одноименные релизы в КлубеВремя раздачи: 24/7 (мультитрекер)
[Профиль] [ЛС]
Показать сообщения:    
Ответить на тему

Текущее время: 22-Фев 01:31

Часовой пояс: UTC ± 0



Вы не можете начинать темы
Вы не можете отвечать на сообщения
Вы не можете редактировать свои сообщения
Вы не можете удалять свои сообщения
Вы не можете голосовать в опросах
Вы не можете прикреплять файлы к сообщениям
Вы не можете скачивать файлы

[  Время выполнения: 0,034 сек  |  MySQL: 0,003 сек (8%) · 3 запр.  |  GZIP выкл  |  Память: 421,85 KB / 1,73 MB / 1,33 MB  |  Лимит: 19 19 19  ]