Расскажи мне страшилку / Tell Me a Creepy Story (2023) WEB-DL [H.264/1080p] [DVO]

Ответить на тему
 
Автор Сообщение

admin ®

Пол: Не указан

Стаж: 6 месяца 22 дня

Сообщений: 11520

Создавать темы 30-Янв-2024 17:28

[Цитировать]

Расскажи мне страшилку / Tell Me a Creepy Story (2023) WEB-DL [H.264/1080p] - Производство: Франция, США, Великобритания / Reel 2 Reel Films, Hewes Pictures
Жанр: ужасы
Режиссер: Сэмюэл Доу, Феликс Добер, Стюарт Грэм
Актеры: Конлет Хилл, Пол Кеннеди, Кэрри Коэн, Роберт Портал, Джо Симс, Эндрю Гривз, Уна Кавана, Саймон Миллар, Лора Бэйстон
Описание:
В этой жуткой антологии ужаса вам представятся истории о пчеловоде, который случайно убивает свою жену, а затем нервно хоронит ее тело под огородом, о ребенке, рожденном с неутолимым и все более нечеловеческим аппетитом, а также о детективе, борющемся с несколькими делами о пропавших детях.
Релиз от: Alexandr
Продолжительность: 01:30:43
Качество видео: WEB-DL
Перевод: Двуголосый любительский (Yuka_chan & datynet)
Язык озвучки: русский, английский
Субтитры: английские
Видео: AVC/H.264, 1920x816 (2.35:1), ~12.9 Mbps
Аудио 1: AAC, 2 ch, 265 Kbps - русский
Аудио 2: E-AC3, 2 ch, 224 Kbps - английский

MediaInfo:

Общее
Уникальный идентификатор : 281676837738258210921266832130937127572 (0xD3E8FC532AFC3598D6F5E7FAF32F0294)
Полное имя : G:\Tell.Me.A.Creepy.Story.2023.by.Alexandr.mkv
Формат : Matroska
Версия формата : Version 4
Размер файла : 8,47 Гбайт
Продолжительность : 1 ч. 30 м.
Общий поток : 13,4 Мбит/сек
Частота кадров : 24,000 кадра/сек
Название фильма : Tell.Me.A.Creepy.Story.2023.by.Alexandr
Дата кодирования : 2023-08-23 14:30:25 UTC
Программа кодирования : mkvmerge v26.0.0 ('In The Game') 32-bit
Библиотека кодирования : libebml v1.3.6 + libmatroska v1.4.9
Видео
Идентификатор : 1
Формат : AVC
Формат/Информация : Advanced Video Codec
Профиль формата : High@L4.2
Настройки формата : CABAC / 4 Ref Frames
Параметр CABAC формата : Да
Параметр RefFrames формата : 4 кадра
Параметр GOP формата : M=1, N=25
Идентификатор кодека : V_MPEG4/ISO/AVC
Продолжительность : 1 ч. 30 м.
Битрейт : 12,9 Мбит/сек
Ширина : 1 920 пикселей
Высота : 816 пикселей
Соотношение сторон : 2,35:1
Режим частоты кадров : Постоянный
Частота кадров : 24,000 кадра/сек
Стандарт вещания : Component
Цветовое пространство : YUV
Субдискретизация насыщенности : 4:2:0
Битовая глубина : 8 бит
Тип развёртки : Прогрессивная
Бит/(Пиксели*Кадры) : 0.343
Размер потока : 8,16 Гбайт (96%)
Default : Да
Forced : Нет
Цветовой диапазон : Limited
Коэффициенты матрицы : BT.709
Аудио #1
Идентификатор : 2
Формат : AAC LC
Формат/Информация : Advanced Audio Codec Low Complexity
Идентификатор кодека : A_AAC-2
Продолжительность : 1 ч. 30 м.
Битрейт : 265 Кбит/сек
Каналы : 2 канала
Channel layout : L R
Частота : 48,0 КГц
Частота кадров : 46,875 кадров/сек (1024 SPF)
Метод сжатия : С потерями
Размер потока : 170 Мбайт (2%)
Язык : Russian
Default : Нет
Forced : Нет
Аудио #2
Идентификатор : 3
Формат : E-AC-3
Формат/Информация : Enhanced AC-3
Коммерческое название : Dolby Digital Plus
Идентификатор кодека : A_EAC3
Продолжительность : 1 ч. 30 м.
Вид битрейта : Постоянный
Битрейт : 224 Кбит/сек
Каналы : 2 канала
Channel layout : L R
Частота : 48,0 КГц
Частота кадров : 31,250 кадров/сек (1536 SPF)
Метод сжатия : С потерями
Размер потока : 145 Мбайт (2%)
Язык : English
Service kind : Complete Main
Default : Да
Forced : Нет
Текст
Идентификатор : 4
Формат : UTF-8
Идентификатор кодека : S_TEXT/UTF8
Идентификатор кодека/Информация : UTF-8 Plain Text
Продолжительность : 1 ч. 29 м.
Битрейт : 19 бит/сек
Частота кадров : 0,088 кадр/сек
Count of elements : 472
Размер потока : 13,0 Кбайт (0%)
Язык : English
Default : Да
Forced : Нет
Скриншоты:
Все одноименные релизы в КлубеВремя раздачи: 24/7 (круглосуточно) (минимум до появления первых 3-5 скачавших)
[Профиль] [ЛС]
Показать сообщения:    
Ответить на тему

Текущее время: 20-Апр 20:39

Часовой пояс: UTC ± 0



Вы не можете начинать темы
Вы не можете отвечать на сообщения
Вы не можете редактировать свои сообщения
Вы не можете удалять свои сообщения
Вы не можете голосовать в опросах
Вы не можете прикреплять файлы к сообщениям
Вы не можете скачивать файлы

[  Время выполнения: 0,031 сек  |  MySQL: 0,003 сек (9%) · 3 запр.  |  GZIP выкл  |  Память: 422,29 KB / 1,72 MB / 1,34 MB  |  Лимит: 4 6 6  ]