Потемнело / The Blackening (2022) BDRip [H.264/1080p] [MVO]

Ответить на тему
 
Автор Сообщение

admin ®

Пол: Не указан

Стаж: 5 месяца

Сообщений: 10110

Создавать темы 30-Янв-2024 17:27

[Цитировать]

Потемнело / The Blackening (2022) BDRip [H.264/1080p]- Производство: США, Catchlight Studios, Lionsgate, Media Rights Capital, MRC Film, Story Company
Жанр: ужасы, комедия
Режиссер: Тим Стори
Продюсер: Шарла Самптер Бриджетт, Марсеи А. Браун
Актеры: Грейс Байерс, Жермен Фаулер, Мелвин Грегг, Икс Майо, Дуэйн Перкинс, Антуанетта Робертсон, Синква Уоллс, Джей Фэро, Ивонн Орджи, Дидрих Бадер
Описание: Группа бывших сокурсников-афроамериканцев собирается на вечеринку в шикарный лесной дом. По прибытии они не обнаруживают прибывшую заранее парочку, зато находят подозрительную игровую комнату, а в ней — крайне нетолерантную настольную игру. Внезапно двери блокируются, и теперь приятелям придётся отвечать на каверзные вопросы викторины по чёрной истории, иначе кто-то из них умрёт.
Рейтинг MPAA: R (Лицам до 17 обязательно присутствие взрослых)
Релиз от: Soft-Torrent - торрент игры программы фильмы книги скачать
Продолжительность: 01:36:57
Качество видео: BDRip 1080p
Перевод: Профессиональный многоголосый (TVShows), Авторский (М. Яроцкий 18+)
Язык озвучки: Русский, Английский
Субтитры: Русские (Full), Английские (Full)
Видео: AVC/H.264, 1920x804, 13.1 Mbps, 23.976 fps
Аудио 1: AC-3, 6 ch, 384 Kbps | Русский MVO TVShows
Аудио 2: E-AC-3, 6 ch, 640 Kbps | Русский AVO М. Яроцкий 18+
Аудио 3: E-AC-3, 8.0 ch, 1280 Kbps | Английский

Mediainfo:

General
Unique ID : 139715125634508670051535931045026922312 (0x691C2787B29C19E0CEF6407A769AFF48)
Complete name : /Volumes/Promise Pegasus/The.Blackening.2022.BDRip.1080p.pk.mkv
Format : Matroska
Format version : Version 4
File size : 10.5 GiB
Duration : 1 h 36 min
Overall bit rate : 15.4 Mb/s
Frame rate : 23.976 FPS
Movie name : The Blackening 2022 BDRip 1080p pk
Encoded date : 2023-08-24 12:53:42 UTC
Writing application : mkvmerge v79.0 ('Funeral Pyres') 64-bit
Writing library : libebml v1.4.4 + libmatroska v1.7.1
Video
ID : 1
Format : AVC
Format/Info : Advanced Video Codec
Format profile : High@L4.1
Format settings : CABAC / 5 Ref Frames
Format settings, CABAC : Yes
Format settings, Reference frames : 5 frames
Codec ID : V_MPEG4/ISO/AVC
Duration : 1 h 36 min
Bit rate : 13.1 Mb/s
Width : 1 920 pixels
Height : 804 pixels
Display aspect ratio : 2.40:1
Frame rate mode : Constant
Frame rate : 23.976 (24000/1001) FPS
Color space : YUV
Chroma subsampling : 4:2:0
Bit depth : 8 bits
Scan type : Progressive
Bits/(Pixel*Frame) : 0.355
Stream size : 8.89 GiB (85%)
Writing library : x264 core 164 r3107+58M encoded by pk5360114 from Russia
Encoding settings : cabac=1 / ref=5 / deblock=1:-3:-3 / analyse=0x3:0x133 / me=umh / subme=11 / psy=1 / fade_compensate=0.00 / psy_rd=1.03:0.00 / mixed_ref=1 / me_range=32 / chroma_me=1 / trellis=2 / 8x8dct=1 / cqm=0 / deadzone=21,11 / fast_pskip=0 / chroma_qp_offset=-2 / threads=25 / lookahead_threads=6 / sliced_threads=0 / nr=0 / decimate=0 / interlaced=0 / bluray_compat=0 / constrained_intra=0 / fgo=0 / bframes=14 / b_pyramid=2 / b_adapt=2 / b_bias=0 / direct=3 / weightb=1 / open_gop=0 / weightp=2 / keyint=240 / keyint_min=23 / scenecut=40 / intra_refresh=0 / rc_lookahead=60 / rc=crf / mbtree=0 / crf=16.0000 / qcomp=0.65 / qpmin=0:0:0 / qpmax=69:69:69 / qpstep=4 / vbv_maxrate=62500 / vbv_bufsize=78125 / crf_max=0.0 / nal_hrd=none / filler=0 / ip_ratio=1.30 / pb_ratio=1.20 / aq=3:0.80 / aq-sensitivity=10.00 / aq-factor=1.00:1.00:1.00:1.00 / aq2=0 / aq3=0
Language : English
Default : Yes
Forced : No
Color range : Limited
Color primaries : BT.709
Transfer characteristics : BT.709
Matrix coefficients : BT.709
Audio #1
ID : 2
Format : AC-3
Format/Info : Audio Coding 3
Commercial name : Dolby Digital
Codec ID : A_AC3
Duration : 1 h 36 min
Bit rate mode : Constant
Bit rate : 384 kb/s
Channel(s) : 6 channels
Channel layout : L R C LFE Ls Rs
Sampling rate : 48.0 kHz
Frame rate : 31.250 FPS (1536 SPF)
Compression mode : Lossy
Stream size : 266 MiB (2%)
Title : Russian MVO TVShows
Language : Russian
Service kind : Complete Main
Default : Yes
Forced : No
Audio #2
ID : 3
Format : E-AC-3
Format/Info : Enhanced AC-3
Commercial name : Dolby Digital Plus
Codec ID : A_EAC3
Duration : 1 h 36 min
Bit rate mode : Constant
Bit rate : 640 kb/s
Channel(s) : 6 channels
Channel layout : L R C LFE Ls Rs
Sampling rate : 48.0 kHz
Frame rate : 31.250 FPS (1536 SPF)
Compression mode : Lossy
Stream size : 444 MiB (4%)
Title : AVO М.Яроцкий 18+
Language : Russian
Service kind : Complete Main
Default : No
Forced : No
Audio #3
ID : 4
Format : E-AC-3
Format/Info : Enhanced AC-3
Commercial name : Dolby Digital Plus
Format profile : Blu-ray Disc
Format settings : Dolby Surround EX
Codec ID : A_EAC3
Duration : 1 h 36 min
Bit rate mode : Constant
Bit rate : 1 280 kb/s
Channel(s) : 8 channels
Channel layout : L R C LFE Ls Rs Lb Rb
Sampling rate : 48.0 kHz
Frame rate : 31.250 FPS (1536 SPF)
Compression mode : Lossy
Stream size : 888 MiB (8%)
Title : English Original
Language : English
Service kind : Complete Main
Default : No
Forced : No
Text #1
ID : 5
Format : UTF-8
Codec ID : S_TEXT/UTF8
Codec ID/Info : UTF-8 Plain Text
Duration : 1 h 32 min
Bit rate : 128 b/s
Frame rate : 0.300 FPS
Count of elements : 1665
Stream size : 86.9 KiB (0%)
Title : Russian full
Language : Russian
Default : No
Forced : No
Text #2
ID : 6
Format : UTF-8
Codec ID : S_TEXT/UTF8
Codec ID/Info : UTF-8 Plain Text
Duration : 1 h 32 min
Bit rate : 87 b/s
Frame rate : 0.317 FPS
Count of elements : 1752
Stream size : 59.2 KiB (0%)
Title : English full
Language : English
Default : No
Forced : No
Menu
00:00:00.000 : en:Chapter 1
00:08:25.838 : en:Chapter 2
00:15:36.936 : en:Chapter 3
00:20:35.859 : en:Chapter 4
00:25:54.302 : en:Chapter 5
00:30:56.354 : en:Chapter 6
00:38:04.365 : en:Chapter 7
00:45:43.615 : en:Chapter 8
00:51:37.719 : en:Chapter 9
00:57:56.097 : en:Chapter 10
00:59:12.382 : en:Chapter 11
01:04:18.980 : en:Chapter 12
01:10:07.203 : en:Chapter 13
01:19:25.927 : en:Chapter 14
01:24:17.844 : en:Chapter 15
01:31:29.650 : en:Chapter 16

x264 log:

x264 [info]: frame I:1225  Avg QP:11.29  size:194364
x264 [info]: frame P:26962 Avg QP:12.60 size:110560
x264 [info]: frame B:111302 Avg QP:13.74 size: 56844
x264 [info]: consecutive B-frames: 2.0% 1.4% 6.3% 11.0% 16.4% 42.9% 7.7% 1.2% 2.0% 1.5% 1.9% 0.9% 1.9% 2.0% 0.8%
x264 [info]: kb/s:13126.37

Скриншоты сравнения






Скриншоты:
Все одноименные релизы в КлубеВремя раздачи: 24/7 (круглосуточно) (до появления первых 3-5 скачавших)
[Профиль] [ЛС]
Показать сообщения:    
Ответить на тему

Текущее время: 28-Фев 21:48

Часовой пояс: UTC ± 0



Вы не можете начинать темы
Вы не можете отвечать на сообщения
Вы не можете редактировать свои сообщения
Вы не можете удалять свои сообщения
Вы не можете голосовать в опросах
Вы не можете прикреплять файлы к сообщениям
Вы не можете скачивать файлы

[  Время выполнения: 0,030 сек  |  MySQL: 0,003 сек (12%) · 3 запр.  |  GZIP выкл  |  Память: 422,29 KB / 1,73 MB / 1,36 MB  |  Лимит: 15 15 15  ]