Знакомство родителей / Maybe I Do (2023) BDRip [H.264]

Ответить на тему
 
Автор Сообщение

admin ®

Пол: Не указан

Стаж: 6 месяца 22 дня

Сообщений: 11520

Создавать темы 30-Янв-2024 17:27

[Цитировать]

Знакомство родителей / Maybe I Do (2023) BDRip [H.264]- Производство: США, Endeavor Content, Vincent Newman Entertainment
Жанр: комедия, мелодрама
Режиссер: Майкл Джейкобс
Актеры: Эмма Робертс, Сьюзен Сарандон, Кевин Д. Бентон, Люк Брейси, Сетти Брозвельт, Ричард Гир, Джина Джун, Дайан Китон, Кирк Келли, Уильям Х. Мэйси, Валерия Марреро, Натали Ортега
Описание: Романтическая комедия, снятая Майклом Джейкобсом по его собственной пьесе "Мошенники"... Молодая пара решает пожениться и, наконец, познакомить своих родителей друг с другом. Но на общей встрече оказывается, что родители не просто знакомы, а имеют множество пикантных секретов как друг от друга, так и от молодоженов...
Возраст: 16+ (зрителям, достигшим 16 лет)
Рейтинг MPAA: PG-13 (детям до 13 лет просмотр нежелателен)
Релиз от: msltel
Продолжительность: 01:34:41
Качество: BDRip
Перевод: дублированный, профессиональный многоголосый
Язык озвучки: русский, английский
Субтитры: английские
Видео: AVC/H.264, 1024x494, 2158 kbps, 24 fps
Аудио 1: AC3, 6 ch, 384 kbps | русский (DUB Paragraph Media)
Аудио 2: AC3, 6 ch, 448 kbps | русский (MVO TVShows)
Аудио 3: AC3, 6 ch, 448 kbps | английский

MediaInfo

Общее
Уникальный идентификатор : 118319813614750216208904402814554702856 (0x59039134612125C19A5F6C82A5A58408)
Полное имя : D:\Video\Знакомство родителей.2023.BDRip AVC msltel.mkv
Формат : Matroska
Версия формата : Version 4
Размер файла : 2,28 Гбайт
Продолжительность : 1 ч. 34 м.
Общий поток : 3 440 Кбит/сек
Частота кадров : 24,000 кадра/сек
Название фильма : Знакомство родителей.2023.BDRip AVC msltel
Дата кодирования : 2023-08-24 01:54:58 UTC
Программа кодирования : mkvmerge v44.0.0 ('Domino') 64-bit
Библиотека кодирования : libebml v1.3.10 + libmatroska v1.5.2
Видео
Идентификатор : 1
Формат : AVC
Формат/Информация : Advanced Video Codec
Профиль формата : High@L4.1
Настройки формата : CABAC / 16 Ref Frames
Параметр CABAC формата : Да
Параметр RefFrames формата : 16 кадров
Идентификатор кодека : V_MPEG4/ISO/AVC
Продолжительность : 1 ч. 34 м.
Битрейт : 2 158 Кбит/сек
Ширина : 1 024 пикселя
Высота : 494 пикселя
Соотношение сторон : 2,073
Режим частоты кадров : Постоянный
Частота кадров : 24,000 кадра/сек
Цветовое пространство : YUV
Субдискретизация насыщенности : 4:2:0
Битовая глубина : 8 бит
Тип развёртки : Прогрессивная
Бит/(Пиксели*Кадры) : 0.178
Размер потока : 1,43 Гбайт (63%)
Библиотека кодирования : x264 core 164 r3085 0bb85e8
Настройки программы : cabac=1 / ref=16 / deblock=1:-1:-1 / analyse=0x3:0x113 / me=umh / subme=11 / psy=1 / psy_rd=1.00:0.00 / mixed_ref=1 / me_range=32 / chroma_me=1 / trellis=2 / 8x8dct=1 / cqm=0 / deadzone=21,11 / fast_pskip=0 / chroma_qp_offset=-2 / threads=12 / lookahead_threads=2 / sliced_threads=0 / nr=0 / decimate=0 / interlaced=0 / bluray_compat=0 / constrained_intra=0 / bframes=9 / b_pyramid=2 / b_adapt=2 / b_bias=0 / direct=1 / weightb=1 / open_gop=0 / weightp=2 / keyint=230 / keyint_min=23 / scenecut=40 / intra_refresh=0 / rc_lookahead=40 / rc=crf / mbtree=0 / crf=18.0 / qcomp=0.60 / qpmin=0 / qpmax=69 / qpstep=4 / vbv_maxrate=50000 / vbv_bufsize=62500 / crf_max=0.0 / nal_hrd=none / filler=0 / ip_ratio=1.40 / pb_ratio=1.30 / aq=3:1.00
Язык : English
Default : Да
Forced : Нет
Аудио #1
Идентификатор : 2
Формат : AC-3
Формат/Информация : Audio Coding 3
Коммерческое название : Dolby Digital
Идентификатор кодека : A_AC3
Продолжительность : 1 ч. 34 м.
Вид битрейта : Постоянный
Битрейт : 384 Кбит/сек
Каналы : 6 каналов
Channel layout : L R C LFE Ls Rs
Частота : 48,0 КГц
Частота кадров : 31,250 кадров/сек (1536 SPF)
Метод сжатия : С потерями
Размер потока : 260 Мбайт (11%)
Заголовок : DUB Paragraph Media
Язык : Russian
Service kind : Complete Main
Default : Да
Forced : Нет
Аудио #2
Идентификатор : 3
Формат : AC-3
Формат/Информация : Audio Coding 3
Коммерческое название : Dolby Digital
Идентификатор кодека : A_AC3
Продолжительность : 1 ч. 34 м.
Вид битрейта : Постоянный
Битрейт : 448 Кбит/сек
Каналы : 6 каналов
Channel layout : L R C LFE Ls Rs
Частота : 48,0 КГц
Частота кадров : 31,250 кадров/сек (1536 SPF)
Метод сжатия : С потерями
Размер потока : 303 Мбайт (13%)
Заголовок : MVO TVShows
Язык : Russian
Service kind : Complete Main
Default : Нет
Forced : Нет
Аудио #3
Идентификатор : 4
Формат : AC-3
Формат/Информация : Audio Coding 3
Коммерческое название : Dolby Digital
Идентификатор кодека : A_AC3
Продолжительность : 1 ч. 34 м.
Вид битрейта : Постоянный
Битрейт : 448 Кбит/сек
Каналы : 6 каналов
Channel layout : L R C LFE Ls Rs
Частота : 48,0 КГц
Частота кадров : 31,250 кадров/сек (1536 SPF)
Метод сжатия : С потерями
Размер потока : 303 Мбайт (13%)
Заголовок : оригинал
Язык : English
Service kind : Complete Main
Default : Нет
Forced : Нет
Текст
Идентификатор : 5
Формат : UTF-8
Идентификатор кодека : S_TEXT/UTF8
Идентификатор кодека/Информация : UTF-8 Plain Text
Продолжительность : 1 ч. 25 м.
Битрейт : 75 бит/сек
Частота кадров : 0,302 кадр/сек
Count of elements : 1546
Размер потока : 47,1 Кбайт (0%)
Заголовок : английские
Язык : English
Default : Нет
Forced : Нет
Меню
00:00:00.000 : en:Chapter 1
00:10:09.375 : en:Chapter 2
00:18:53.333 : en:Chapter 3
00:34:27.708 : en:Chapter 4
00:41:56.666 : en:Chapter 5
00:54:53.750 : en:Chapter 6
01:06:20.208 : en:Chapter 7
01:19:20.416 : en:Chapter 8
01:28:31.458 : en:Chapter 9
Скриншоты:
Все одноименные релизы в КлубеВремя раздачи: 24/7 (минимум до появления первых 3-5 скачавших)
[Профиль] [ЛС]
Показать сообщения:    
Ответить на тему

Текущее время: 20-Апр 19:37

Часовой пояс: UTC ± 0



Вы не можете начинать темы
Вы не можете отвечать на сообщения
Вы не можете редактировать свои сообщения
Вы не можете удалять свои сообщения
Вы не можете голосовать в опросах
Вы не можете прикреплять файлы к сообщениям
Вы не можете скачивать файлы

[  Время выполнения: 0,028 сек  |  MySQL: 0,003 сек (11%) · 3 запр.  |  GZIP выкл  |  Память: 422,29 KB / 1,73 MB / 1,35 MB  |  Лимит: 7 6 7  ]