Убийственный книжный клуб / El club de los lectores criminales / Killer Book Club (2023) WEB-DLRip [H.264/1080p] [MVO] [AD]

Ответить на тему
 
Автор Сообщение

admin ®

Пол: Не указан

Стаж: 7 месяца 26 дня

Сообщений: 11520

Создавать темы 30-Янв-2024 17:27

[Цитировать]

Убийственный книжный клуб / El club de los lectores criminales / Killer Book Club (2023) WEB-DLRip [H.264/1080p] - Производство: Испания / Brutal Media
Жанр: ужасы, триллер
Режиссер: Карлос Алонсо-Охеа
Актеры: Веки Г. Велилья, Иван Пеллисер, Álvaro Mel, Даниель Грао, Приссила Дельгадо, Ane Rot, Carlos Alcaide, María Cerezuela, Hamza Zaidi, Кармела Йорет и др.
Описание:
По одноименному роману Карлоса Гарсия Миранды. Восемь друзей, которые обожают страшные истории, оказываются частью одной из них. Клоун-убийца, похоже, знает их общую тайну и планирует убить всех до единого.
Релиз от: ViruseProject
Продолжительность: 01:30:00
Качество видео: WEB-DLRip 1080p
Перевод: Профессиональный двухголосый (ViruseProject)
Язык озвучки: Русский, испанский
Субтитры: Русские
Реклама: Присутствуют видео вставки рекламы
Видео: AVC/H.264, 1920x1080 (16:9), ~4388 Kbps
Аудио 1: AC3, 2 ch, 224 Kbps - русский
Аудио 2: AC3, 2 ch, 224 Kbps - испанский

MediaInfo:

General
Unique ID : 227235127602025884080107349020745376278 (0xAAF3E4C754912D70A530BFC8B143A216)
Complete name : El.club.de.los.lectores.criminales.2023.1080p.WEB-DLRip.ViruseProject.mkv
Format : Matroska
Format version : Version 4
File size : 3.07 GiB
Duration : 1 h 30 min
Overall bit rate : 4 838 kb/s
Encoded date : UTC 2023-08-26 08:37:24
Writing application : mkvmerge v8.3.0 ('Over the Horizon') 64bit
Writing library : libebml v1.3.1 + libmatroska v1.4.2
Video
ID : 1
Format : AVC
Format/Info : Advanced Video Codec
Format profile : High@L4
Format settings : CABAC / 4 Ref Frames
Format settings, CABAC : Yes
Format settings, Reference frames : 4 frames
Codec ID : V_MPEG4/ISO/AVC
Duration : 1 h 30 min
Bit rate : 4 388 kb/s
Width : 1 920 pixels
Height : 1 080 pixels
Display aspect ratio : 16:9
Frame rate mode : Constant
Frame rate : 24.000 FPS
Color space : YUV
Chroma subsampling : 4:2:0
Bit depth : 8 bits
Scan type : Progressive
Bits/(Pixel*Frame) : 0.088
Stream size : 2.78 GiB (91%)
Language : English
Default : Yes
Forced : No
Color range : Limited
Color primaries : BT.709
Transfer characteristics : BT.709
Matrix coefficients : BT.709
Audio #1
ID : 2
Format : AC-3
Format/Info : Audio Coding 3
Commercial name : Dolby Digital
Codec ID : A_AC3
Duration : 1 h 30 min
Bit rate mode : Constant
Bit rate : 224 kb/s
Channel(s) : 2 channels
Channel layout : L R
Sampling rate : 48.0 kHz
Frame rate : 31.250 FPS (1536 SPF)
Compression mode : Lossy
Stream size : 145 MiB (5%)
Title : ViruseProject
Language : Russian
Service kind : Complete Main
Default : Yes
Forced : No
Audio #2
ID : 3
Format : AC-3
Format/Info : Audio Coding 3
Commercial name : Dolby Digital
Codec ID : A_AC3
Duration : 1 h 30 min
Bit rate mode : Constant
Bit rate : 224 kb/s
Channel(s) : 2 channels
Channel layout : L R
Sampling rate : 48.0 kHz
Frame rate : 31.250 FPS (1536 SPF)
Compression mode : Lossy
Stream size : 145 MiB (5%)
Language : Spanish
Service kind : Complete Main
Default : No
Forced : No
Text
ID : 4
Format : UTF-8
Codec ID : S_TEXT/UTF8
Codec ID/Info : UTF-8 Plain Text
Duration : 1 h 28 min
Bit rate : 79 b/s
Count of elements : 1003
Stream size : 51.4 KiB (0%)
Language : Russian
Default : No
Forced : No
Скриншоты:
Все одноименные релизы в КлубеВремя раздачи: мультитрекерная раздача
[Профиль] [ЛС]
Показать сообщения:    
Ответить на тему

Текущее время: 24-Май 12:35

Часовой пояс: UTC ± 0



Вы не можете начинать темы
Вы не можете отвечать на сообщения
Вы не можете редактировать свои сообщения
Вы не можете удалять свои сообщения
Вы не можете голосовать в опросах
Вы не можете прикреплять файлы к сообщениям
Вы не можете скачивать файлы

[  Время выполнения: 0,040 сек  |  MySQL: 0,004 сек (11%) · 5 запр.  |  GZIP выкл  |  Память: 422,29 KB / 1,73 MB / 1,34 MB  |  Лимит: 6 7 7  ]