Мег 2: Бездна / Meg 2: The Trench (2023) WEB-DL [H.264/1080p] [DVO]

Ответить на тему
 
Автор Сообщение

admin ®

Пол: Не указан

Стаж: 6 месяца 22 дня

Сообщений: 11520

Создавать темы 30-Янв-2024 17:27

[Цитировать]

Мег 2: Бездна / Meg 2: The Trench (2023) WEB-DL [H.264/1080p] - Производство: США, Китай / Apelles Entertainment, China Media Capital, Flagship Entertainment Group, Gravity Pictures, Maeday Productions, Warner Bros. Studios Leavesden
Жанр: ужасы, фантастика, боевик
Режиссер: Бен Уитли
Актеры: Джейсон Стэйтем, Клифф Кёртис, Сиенна Гиллори, Шуя Софиа Цай, Скайлер Сэмюэлс, Мелиссанти Махут, Пейдж Кеннеди, Джеки У, Whoopie Van Raam, Киран Соня Савар
Описание:
Водолаз-спасатель Джонас отправляется во впадину, где обитает очередная акула-мегалодон. Одолеть суперхищницу и её подводных приспешников будет совсем непросто.
Рейтинг MPAA: PG-13 (детям до 13 лет просмотр нежелателен)
Релиз от: JNS82
Продолжительность: 01:55:37
Качество видео: WEB-DL
Перевод: двухголосый любительский (TOKSIN)
Язык озвучки: русский, английский
Субтитры: русские, английские (forced, full), французские
Видео: AVC/H.264, 1920x800, ~7343 Kbps
Аудио 1: AC3, 6 ch, 384 Kbps - Русский (DVO, TOKSIN) без цензуры, 18+
Аудио 2: E-AC3, 6 ch, 640 Kbps - Английский

MediaInfo:

Общее
Уникальный идентификатор : 8558014503214968587688468650963857886 (0x67036B1161F0D73AA2BA225B0FD71DE)
Полное имя : G:\ВРЕМ\Meg 2.The Trench (2023) WEB-DL.1080p.mkv
Формат : Matroska
Версия формата : Version 4
Размер файла : 6,76 Гбайт
Продолжительность : 1 ч. 55 м.
Общий поток : 8 370 Кбит/сек
Название фильма : Meg.2.The.Trench.2023.1080p.AMZN_JNS82
Дата кодирования : UTC 2023-08-26 17:36:56
Программа кодирования : mkvmerge v59.0.0 ('Shining Star') 64-bit
Библиотека кодирования : libebml v1.4.2 + libmatroska v1.6.4
Видео
Идентификатор : 1
Формат : AVC
Формат/Информация : Advanced Video Codec
Профиль формата : High@L4
Настройки формата : CABAC / 4 Ref Frames
Параметр CABAC формата : Да
Параметр RefFrames формата : 4 кадра
Идентификатор кодека : V_MPEG4/ISO/AVC
Продолжительность : 1 ч. 55 м.
Вид битрейта : Постоянный
Битрейт : 7 343 Кбит/сек
Номинальный битрейт : 10 000 Кбит/сек
Ширина : 1 920 пикселей
Высота : 800 пикселей
Соотношение сторон : 2,40:1
Режим частоты кадров : Постоянный
Частота кадров : 23,976 (24000/1001) кадра/сек
Цветовое пространство : YUV
Субдискретизация насыщенности : 4:2:0
Битовая глубина : 8 бит
Тип развёртки : Прогрессивная
Бит/(Пиксели*Кадры) : 0.199
Размер потока : 5,93 Гбайт (88%)
Язык : English
Default : Да
Forced : Нет
Цветовой диапазон : Limited
Основные цвета : BT.709
Характеристики трансфера : BT.709
Коэффициенты матрицы : BT.709
Аудио #1
Идентификатор : 2
Формат : AC-3
Формат/Информация : Audio Coding 3
Коммерческое название : Dolby Digital
Идентификатор кодека : A_AC3
Продолжительность : 1 ч. 55 м.
Вид битрейта : Постоянный
Битрейт : 384 Кбит/сек
Каналы : 2 канала
Channel layout : L R
Частота : 48,0 КГц
Частота кадров : 31,250 кадров/сек (1536 SPF)
Метод сжатия : С потерями
Размер потока : 318 Мбайт (5%)
Заголовок : DVO - TOKSIN
Язык : Russian
Service kind : Complete Main
Default : Да
Forced : Нет
Аудио #2
Идентификатор : 3
Формат : E-AC-3
Формат/Информация : Enhanced AC-3
Коммерческое название : Dolby Digital Plus
Идентификатор кодека : A_EAC3
Продолжительность : 1 ч. 55 м.
Вид битрейта : Постоянный
Битрейт : 640 Кбит/сек
Каналы : 6 каналов
Channel layout : L R C LFE Ls Rs
Частота : 48,0 КГц
Частота кадров : 31,250 кадров/сек (1536 SPF)
Метод сжатия : С потерями
Размер потока : 529 Мбайт (8%)
Заголовок : Original
Язык : English
Service kind : Complete Main
Default : Нет
Forced : Нет
Текст #1
Идентификатор : 4
Формат : UTF-8
Идентификатор кодека : S_TEXT/UTF8
Идентификатор кодека/Информация : UTF-8 Plain Text
Продолжительность : 1 ч. 45 м.
Битрейт : 90 бит/сек
Count of elements : 1482
Размер потока : 69,8 Кбайт (0%)
Заголовок : [full [от stirlooo]]
Язык : Russian
Default : Нет
Forced : Нет
Текст #2
Идентификатор : 5
Формат : UTF-8
Идентификатор кодека : S_TEXT/UTF8
Идентификатор кодека/Информация : UTF-8 Plain Text
Продолжительность : 1 ч. 35 м.
Битрейт : 3 бит/сек
Count of elements : 88
Размер потока : 2,72 Кбайт (0%)
Заголовок : Forced
Язык : English
Default : Нет
Forced : Нет
Текст #3
Идентификатор : 6
Формат : UTF-8
Идентификатор кодека : S_TEXT/UTF8
Идентификатор кодека/Информация : UTF-8 Plain Text
Продолжительность : 1 ч. 48 м.
Битрейт : 56 бит/сек
Count of elements : 1626
Размер потока : 45,1 Кбайт (0%)
Заголовок : [full]
Язык : English
Default : Нет
Forced : Нет
Текст #4
Идентификатор : 7
Формат : UTF-8
Идентификатор кодека : S_TEXT/UTF8
Идентификатор кодека/Информация : UTF-8 Plain Text
Продолжительность : 1 ч. 54 м.
Битрейт : 38 бит/сек
Count of elements : 1339
Размер потока : 32,5 Кбайт (0%)
Заголовок : [full]
Язык : French
Default : Нет
Forced : Нет
Скриншоты:
Все одноименные релизы в КлубеВремя раздачи: с 5:00 до 19:00 мск (до первых 3 скачавших)
[Профиль] [ЛС]
Показать сообщения:    
Ответить на тему

Текущее время: 20-Апр 19:27

Часовой пояс: UTC ± 0



Вы не можете начинать темы
Вы не можете отвечать на сообщения
Вы не можете редактировать свои сообщения
Вы не можете удалять свои сообщения
Вы не можете голосовать в опросах
Вы не можете прикреплять файлы к сообщениям
Вы не можете скачивать файлы

[  Время выполнения: 0,030 сек  |  MySQL: 0,004 сек (12%) · 3 запр.  |  GZIP выкл  |  Память: 422,29 KB / 1,73 MB / 1,35 MB  |  Лимит: 3 5 8  ]