Где-то в Куинсе / Somewhere in Queens (2023) WEB-DL [H.264/1080p]

Ответить на тему
 
Автор Сообщение

admin ®

Пол: Не указан

Стаж: 4 месяца 27 дня

Сообщений: 10110

Создавать темы 30-Янв-2024 17:27

[Цитировать]

Где-то в Куинсе / Somewhere in Queens (2023) WEB-DL [H.264/1080p]- Производство: США / Bona Fide Productions
Жанр: драма, комедия, спорт
Режиссер: Рэй Романо
Актеры: Рэй Романо, Лори Меткаф, Дженнифер Эспозито, Сэди Стэнли, Себастьян Манискалко, П.Дж. Бирн, Карен Линн Горни, Джексон Пэйс, Джеффри Оуэнс, Эрик Гриффин
Описание:
Лео Руссо живет простой жизнью в Квинсе со своей женой Анджелой, их застенчивым, но талантливым сыном Стиксом, а также близкими родственниками, соседями и друзьями Лео итало-американского происхождения. Достаточно счастливый, чтобы работать в семейном строительном бизнесе со своим отцом и младшим братом, Лео живет только баскетбольными играми в колледже и никогда не упускает возможности поболеть за своего единственного сына. Сын Стикс добивается успехов в баскетбольшой команде колледжа и Лео использует эту возможность, чтобы спланировать свое будущее вдали от семейного строительного бизнеса. Но когда неожиданное горе обрушивается на баскетбольную команду, Лео предпринимает внезапные действия, чтобы удержать сына на этом новом пути.
Рейтинг MPAA: R (Лицам до 17 обязательно присутствие взрослых)
Продолжительность: 01:46:39
Качество видео: WEB-DL (1080p)
Перевод: Многоголосый профессиональный (Лицензия | RUS)
Язык озвучки: Русский, английский
Субтитры: Русские (Forced, full), английские, французские
Видео: AVC/H.264, 1920x960, ~10 Mbps
Аудио #1: AC3, 6 ch, 384 Kbps - Русский
Аудио #2: E-AC3, 6 ch, 640 Kbps - Английский

MediaInfo:

Общее
Уникальный идентификатор : 34946873859835540598194663912940293330 (0x1A4A85E8C3702730A67A81319D7CCCD2)
Полное имя : D:\NNM\Где-то в Куинсе\Somewhere.in.Queens.2022.AMZN.WEB-DL.1080p.seleZen.mkv
Формат : Matroska
Версия формата : Version 4
Размер файла : 7,88 Гбайт
Продолжительность : 1 ч. 46 м.
Общий поток : 10,6 Мбит/сек
Название фильма : Somewhere in Queens 2022 from seleZen
Дата кодирования : UTC 2023-08-21 01:37:31
Программа кодирования : mkvmerge v63.0.0 ('Everything') 64-bit
Библиотека кодирования : libebml v1.4.2 + libmatroska v1.6.4
Видео
Идентификатор : 1
Формат : AVC
Формат/Информация : Advanced Video Codec
Профиль формата : High@L4
Настройки формата : CABAC / 4 Ref Frames
Параметр CABAC формата : Да
Параметр RefFrames формата : 4 кадра
Идентификатор кодека : V_MPEG4/ISO/AVC
Продолжительность : 1 ч. 46 м.
Вид битрейта : Постоянный
Битрейт : 10 000 Кбит/сек
Ширина : 1 920 пикселей
Высота : 960 пикселей
Соотношение сторон : 2,000
Режим частоты кадров : Постоянный
Частота кадров : 23,976 (24000/1001) кадра/сек
Цветовое пространство : YUV
Субдискретизация насыщенности : 4:2:0
Битовая глубина : 8 бит
Тип развёртки : Прогрессивная
Бит/(Пиксели*Кадры) : 0.226
Размер потока : 7,12 Гбайт (90%)
Язык : English
Default : Да
Forced : Нет
Цветовой диапазон : Limited
Основные цвета : BT.709
Характеристики трансфера : BT.709
Коэффициенты матрицы : BT.709
Аудио #1
Идентификатор : 2
Формат : AC-3
Формат/Информация : Audio Coding 3
Коммерческое название : Dolby Digital
Идентификатор кодека : A_AC3
Продолжительность : 1 ч. 46 м.
Вид битрейта : Постоянный
Битрейт : 384 Кбит/сек
Каналы : 6 каналов
Channel layout : L R C LFE Ls Rs
Частота : 48,0 КГц
Частота кадров : 31,250 кадров/сек (1536 SPF)
Метод сжатия : С потерями
Размер потока : 293 Мбайт (4%)
Заголовок : MVO [License]
Язык : Russian
Service kind : Complete Main
Default : Да
Forced : Да
Аудио #2
Идентификатор : 3
Формат : E-AC-3
Формат/Информация : Enhanced AC-3
Коммерческое название : Dolby Digital Plus
Идентификатор кодека : A_EAC3
Продолжительность : 1 ч. 46 м.
Вид битрейта : Постоянный
Битрейт : 640 Кбит/сек
Каналы : 6 каналов
Channel layout : L R C LFE Ls Rs
Частота : 48,0 КГц
Частота кадров : 31,250 кадров/сек (1536 SPF)
Метод сжатия : С потерями
Размер потока : 488 Мбайт (6%)
Заголовок : Original
Язык : English
Service kind : Complete Main
Default : Нет
Forced : Нет
Текст #1
Идентификатор : 4
Формат : UTF-8
Идентификатор кодека : S_TEXT/UTF8
Идентификатор кодека/Информация : UTF-8 Plain Text
Продолжительность : 1 ч. 45 м.
Битрейт : 0 бит/сек
Count of elements : 12
Размер потока : 599 байт (0%)
Заголовок : Forced
Язык : Russian
Default : Да
Forced : Да
Текст #2
Идентификатор : 5
Формат : UTF-8
Идентификатор кодека : S_TEXT/UTF8
Идентификатор кодека/Информация : UTF-8 Plain Text
Продолжительность : 1 ч. 45 м.
Битрейт : 101 бит/сек
Count of elements : 1591
Размер потока : 79,0 Кбайт (0%)
Заголовок : Full
Язык : Russian
Default : Нет
Forced : Нет
Текст #3
Идентификатор : 6
Формат : UTF-8
Идентификатор кодека : S_TEXT/UTF8
Идентификатор кодека/Информация : UTF-8 Plain Text
Продолжительность : 1 ч. 41 м.
Битрейт : 76 бит/сек
Count of elements : 1743
Размер потока : 56,8 Кбайт (0%)
Заголовок : Full
Язык : English
Default : Нет
Forced : Нет
Текст #4
Идентификатор : 7
Формат : UTF-8
Идентификатор кодека : S_TEXT/UTF8
Идентификатор кодека/Информация : UTF-8 Plain Text
Продолжительность : 1 ч. 46 м.
Битрейт : 79 бит/сек
Count of elements : 1909
Размер потока : 62,1 Кбайт (0%)
Заголовок : SDH
Язык : English
Default : Нет
Forced : Нет
Текст #5
Идентификатор : 8
Формат : UTF-8
Идентификатор кодека : S_TEXT/UTF8
Идентификатор кодека/Информация : UTF-8 Plain Text
Продолжительность : 1 ч. 45 м.
Битрейт : 56 бит/сек
Count of elements : 1599
Размер потока : 43,6 Кбайт (0%)
Язык : French
Default : Нет
Forced : Нет
Скриншоты: Все одноименные релизы в КлубеВремя раздачи: 24/7 (до 10-ти скачавших)
[Профиль] [ЛС]
Показать сообщения:    
Ответить на тему

Текущее время: 25-Фев 21:58

Часовой пояс: UTC ± 0



Вы не можете начинать темы
Вы не можете отвечать на сообщения
Вы не можете редактировать свои сообщения
Вы не можете удалять свои сообщения
Вы не можете голосовать в опросах
Вы не можете прикреплять файлы к сообщениям
Вы не можете скачивать файлы

[  Время выполнения: 0,040 сек  |  MySQL: 0,003 сек (7%) · 3 запр.  |  GZIP выкл  |  Память: 422,29 KB / 1,75 MB / 1,37 MB  |  Лимит: 19 20 18  ]