Лучшие дни / Greatest Days (2023) - Скачать торрент

Ответить на тему
 
Автор Сообщение

admin ®

Пол: Не указан

Стаж: 7 месяца 26 дня

Сообщений: 11520

Создавать темы 02-Окт-2023 11:21

[Цитировать]

Лучшие дни / Greatest Days (2023) - Скачать торрент- Производство: Великобритания / Ekome, Elysian Film GroupЮ Head Gear Films, Heretic
Жанр: мюзикл, драма, комедия, музыка
Режиссер: Коки Гидройч
Актеры: Эшлин Би, Амака Окафор, Элис Лоу, Джейд Адамс, Лара МакДоннел, Нанди Хадсон, Элиза Добсон, Каррагон Гест, Мэттью МакНалти, Эмма Амос
Описание:
История о четырех подругах, которые встречаются спустя 25 лет, чтобы отправиться в путешествие и вспомнить свою бурную молодость под песни культовой группы Take That.
Возраст: 18+ (зрителям, достигшим 18 лет. запрещено для детей)
Релиз от: DoMiNo & seleZen
Продолжительность: 01:43:20
Качество видео: BDRip
Перевод: Дублированный (Мосфильм-Мастер)
Язык озвучки: Русский, английский
Субтитры: Английские (forced), немецкие
Видео: AVC/H.264, 1920х804, ~10,4 Mbps
Аудио 1: AC3, 6 ch, 448 Kbps, русский
Аудио 2: AC3, 6 ch, 640 Kbps, английский

MediaInfo:

Общее
Уникальный идентификатор : 191888102686446742536293420085214400324 (0x905C4DE62E954AB762D58FD6B84B4F44)
Полное имя : \\Minipc\d\Фильмы\Greatest.Days.2023.DUB.BDRip.1080p.x264.seleZen.mkv
Формат : Matroska
Версия формата : Version 4
Размер файла : 8,30 Гбайт
Продолжительность : 1 ч. 43 м.
Общий поток : 11,5 Мбит/сек
Частота кадров : 24,000 кадра/сек
Название фильма : Greatest.Days.2023.DUB.BDRip.1080p.x264.seleZen
Дата кодирования : 2023-10-01 19:46:05 UTC
Программа кодирования : mkvmerge v79.0 ('Funeral Pyres') 64-bit
Библиотека кодирования : libebml v1.4.4 + libmatroska v1.7.1
Обложка : Yes
Attachments : cover.jpg / small_cover.jpg
Видео
Идентификатор : 1
Формат : AVC
Формат/Информация : Advanced Video Codec
Профиль формата : High@L4.1
Настройки формата : CABAC / 5 Ref Frames
Параметр CABAC формата : Да
Параметр RefFrames формата : 5 кадров
Идентификатор кодека : V_MPEG4/ISO/AVC
Продолжительность : 1 ч. 43 м.
Битрейт : 10,4 Мбит/сек
Ширина : 1 920 пикселей
Высота : 804 пикселя
Соотношение сторон : 2,40:1
Режим частоты кадров : Постоянный
Частота кадров : 24,000 кадра/сек
Цветовое пространство : YUV
Субдискретизация насыщенности : 4:2:0
Битовая глубина : 8 бит
Тип развёртки : Прогрессивная
Бит/(Пиксели*Кадры) : 0.281
Размер потока : 7,51 Гбайт (91%)
Заголовок : -=DoMiNo=-
Библиотека кодирования : x264 core 164 r3107+58M ae98796 t_mod_New | by -=DoMiNo=- | X86_64]
Настройки программы : cabac=1 / ref=5 / deblock=1:-2:-2 / analyse=0x3:0x133 / me=umh / subme=10 / psy=1 / fade_compensate=0.00 / psy_rd=1.05:0.03 / mixed_ref=1 / me_range=32 / chroma_me=1 / trellis=2 / 8x8dct=1 / cqm=0 / deadzone=21,11 / fast_pskip=0 / chroma_qp_offset=-3 / threads=24 / lookahead_threads=6 / sliced_threads=0 / nr=0 / decimate=1 / interlaced=0 / bluray_compat=0 / constrained_intra=0 / fgo=0 / bframes=10 / b_pyramid=2 / b_adapt=2 / b_bias=0 / direct=3 / weightb=1 / open_gop=0 / weightp=2 / keyint=240 / keyint_min=24 / scenecut=40 / intra_refresh=0 / rc_lookahead=60 / rc=crf / mbtree=0 / crf=18.0000 / qcomp=0.60 / qpmin=0:0:0 / qpmax=69:69:69 / qpstep=4 / vbv_maxrate=50000 / vbv_bufsize=62500 / crf_max=0.0 / nal_hrd=none / filler=0 / ip_ratio=1.35 / pb_ratio=1.20 / aq=1:0.90 / aq-sensitivity=10.00 / aq-factor=1.00:1.00:1.00 / aq2=0 / aq3=0
Язык : English
Default : Да
Forced : Нет
Цветовой диапазон : Limited
Основные цвета : BT.709
Характеристики трансфера : BT.709
Коэффициенты матрицы : BT.709
Аудио #1
Идентификатор : 2
Формат : AC-3
Формат/Информация : Audio Coding 3
Коммерческое название : Dolby Digital
Идентификатор кодека : A_AC3
Продолжительность : 1 ч. 43 м.
Вид битрейта : Постоянный
Битрейт : 448 Кбит/сек
Каналы : 6 каналов
Channel layout : L R C LFE Ls Rs
Частота : 48,0 КГц
Частота кадров : 31,250 кадров/сек (1536 SPF)
Метод сжатия : С потерями
Размер потока : 331 Мбайт (4%)
Заголовок : Дублированный - Мосфильм-Мастер
Язык : Russian
Service kind : Complete Main
Default : Да
Forced : Нет
Аудио #2
Идентификатор : 3
Формат : AC-3
Формат/Информация : Audio Coding 3
Коммерческое название : Dolby Digital
Идентификатор кодека : A_AC3
Продолжительность : 1 ч. 43 м.
Вид битрейта : Постоянный
Битрейт : 640 Кбит/сек
Каналы : 6 каналов
Channel layout : L R C LFE Ls Rs
Частота : 48,0 КГц
Частота кадров : 31,250 кадров/сек (1536 SPF)
Метод сжатия : С потерями
Размер потока : 473 Мбайт (6%)
Заголовок : Original
Язык : English
Service kind : Complete Main
Default : Нет
Forced : Нет
Текст #1
Идентификатор : 4
Формат : UTF-8
Идентификатор кодека : S_TEXT/UTF8
Идентификатор кодека/Информация : UTF-8 Plain Text
Продолжительность : 5 с. 165 мс.
Битрейт : 86 бит/сек
Частота кадров : 0,387 кадр/сек
Count of elements : 2
Размер потока : 56,0 байт (0%)
Заголовок : Forced
Язык : English
Default : Нет
Forced : Нет
Текст #2
Идентификатор : 5
Формат : UTF-8
Идентификатор кодека : S_TEXT/UTF8
Идентификатор кодека/Информация : UTF-8 Plain Text
Продолжительность : 1 ч. 35 м.
Битрейт : 68 бит/сек
Частота кадров : 0,234 кадр/сек
Count of elements : 1333
Размер потока : 47,8 Кбайт (0%)
Язык : German
Default : Нет
Forced : Нет
Меню
00:00:00.000 : en:Chapter 01
00:09:07.083 : en:Chapter 02
00:15:04.625 : en:Chapter 03
00:20:17.833 : en:Chapter 04
00:26:45.750 : en:Chapter 05
00:32:00.083 : en:Chapter 06
00:37:18.000 : en:Chapter 07
00:43:12.417 : en:Chapter 08
00:49:02.750 : en:Chapter 09
00:56:02.625 : en:Chapter 10
01:01:51.458 : en:Chapter 11
01:08:08.083 : en:Chapter 12
01:16:57.208 : en:Chapter 13
01:23:08.375 : en:Chapter 14
01:29:29.958 : en:Chapter 15
01:36:10.292 : en:Chapter 16
Скриншоты:
Все одноименные релизы в КлубеВремя раздачи: 24/7 (минимум до появления первых 3-5 скачавших)
[Профиль] [ЛС]
Показать сообщения:    
Ответить на тему

Текущее время: 24-Май 12:47

Часовой пояс: UTC ± 0



Вы не можете начинать темы
Вы не можете отвечать на сообщения
Вы не можете редактировать свои сообщения
Вы не можете удалять свои сообщения
Вы не можете голосовать в опросах
Вы не можете прикреплять файлы к сообщениям
Вы не можете скачивать файлы

[  Время выполнения: 0,035 сек  |  MySQL: 0,004 сек (10%) · 3 запр.  |  GZIP выкл  |  Память: 422,49 KB / 1,73 MB / 1,35 MB  |  Лимит: 6 7 7  ]