Где-то в Куинсе / Somewhere in Queens (2023) WEB-DLRip

Ответить на тему
 
Автор Сообщение

admin ®

Пол: Не указан

Стаж: 4 месяца 27 дня

Сообщений: 10110

Создавать темы 30-Янв-2024 17:27

[Цитировать]

Где-то в Куинсе / Somewhere in Queens (2023) WEB-DLRip- Производство: США / Bona Fide Productions
Жанр: драма, комедия, спорт
Режиссер: Рэй Романо
Актеры: Рэй Романо, Лори Меткаф, Дженнифер Эспозито, Сэди Стэнли, Себастьян Манискалко, П.Дж. Бирн, Карен Линн Горни, Джексон Пэйс, Джеффри Оуэнс, Эрик Гриффин
Описание:
Лео Руссо живет простой жизнью в Квинсе со своей женой Анджелой, их застенчивым, но талантливым сыном Стиксом, а также близкими родственниками, соседями и друзьями Лео итало-американского происхождения. Достаточно счастливый, чтобы работать в семейном строительном бизнесе со своим отцом и младшим братом, Лео живет только баскетбольными играми в колледже и никогда не упускает возможности поболеть за своего единственного сына. Сын Стикс добивается успехов в баскетбольшой команде колледжа и Лео использует эту возможность, чтобы спланировать свое будущее вдали от семейного строительного бизнеса. Но когда неожиданное горе обрушивается на баскетбольную команду, Лео предпринимает внезапные действия, чтобы удержать сына на этом новом пути.
Рейтинг MPAA: R (Лицам до 17 обязательно присутствие взрослых)
Продолжительность: 01:46:39
Качество видео: WEB-DLRip
Перевод: Многоголосый профессиональный (Лицензия | RUS)
Язык озвучки: Русский
Субтитры: Отсутствуют
Видео: XviD, 720x360, ~1569 Kbps
Аудио: AC-3, 6 ch, 384 Kbps

MediaInfo:

Общее
Полное имя : D:\NNM\Где-то в Куинсе\Somewhere.in.Queens.2022.AMZN.WEB-DLRip.avi
Формат : AVI
Формат/Информация : Audio Video Interleave
Размер файла : 1,46 Гбайт
Продолжительность : 1 ч. 46 м.
Общий поток : 1 962 Кбит/сек
Программа кодирования : VirtualDubMod 1.5.10.3 | www.virtualdub-fr.org || (build 2550/release)
Библиотека кодирования : VirtualDubMod build 2550/release
Видео
Идентификатор : 0
Формат : MPEG-4 Visual
Профиль формата : Advanced Simple@L5
Настройки формата : BVOP1 / Custom Matrix
Параметр BVOP формата : 1
Параметр QPel формата : Нет
Параметр GMC формата : Без точки перехода
Параметр матрицы формата : Выборочная
Идентификатор кодека : XVID
Идентификатор кодека/Подсказка : XviD
Продолжительность : 1 ч. 46 м.
Битрейт : 1 569 Кбит/сек
Ширина : 720 пикселей
Высота : 360 пикселей
Соотношение сторон : 2,000
Частота кадров : 23,976 (24000/1001) кадра/сек
Цветовое пространство : YUV
Субдискретизация насыщенности : 4:2:0
Битовая глубина : 8 бит
Тип развёртки : Прогрессивная
Метод сжатия : С потерями
Бит/(Пиксели*Кадры) : 0.252
Размер потока : 1,17 Гбайт (80%)
Библиотека кодирования : XviD 73
Аудио
Идентификатор : 1
Формат : AC-3
Формат/Информация : Audio Coding 3
Коммерческое название : Dolby Digital
Идентификатор кодека : 2000
Продолжительность : 1 ч. 46 м.
Вид битрейта : Постоянный
Битрейт : 384 Кбит/сек
Каналы : 6 каналов
Channel layout : L R C LFE Ls Rs
Частота : 48,0 КГц
Частота кадров : 31,250 кадров/сек (1536 SPF)
Метод сжатия : С потерями
Размер потока : 293 Мбайт (20%)
Выравнивание : Разделение по промежуткам
Продолжительность промежутка : 42 мс. (1,00 видеокадр)
Время предзагрузки промежутка : 500 мс.
Service kind : Complete Main
Скриншоты: Все одноименные релизы в КлубеВремя раздачи: 24/7 (до 10-ти скачавших)
[Профиль] [ЛС]
Показать сообщения:    
Ответить на тему

Текущее время: 25-Фев 18:33

Часовой пояс: UTC ± 0



Вы не можете начинать темы
Вы не можете отвечать на сообщения
Вы не можете редактировать свои сообщения
Вы не можете удалять свои сообщения
Вы не можете голосовать в опросах
Вы не можете прикреплять файлы к сообщениям
Вы не можете скачивать файлы

[  Время выполнения: 0,028 сек  |  MySQL: 0,004 сек (14%) · 3 запр.  |  GZIP выкл  |  Память: 422,29 KB / 1,72 MB / 1,32 MB  |  Лимит: 19 17 15  ]